File Size214.7 MB (225,086,741 bytes)
DownloadAnonFiles | ClickNUpload | DropAPK | Free | MultiUp
  • BdUpload
  • DownAce
  • Fichier
  • FileCloud
  • Filerio
  • FilesCdn
  • IndiShare
  • Kbagi
  • Turbobit
  • UpToBox
  • Uppit
| SolidFiles | ZippyShare
HashesCRC32: 9BA924DC, MD5: 76A82F8B196F95420B4454C984AF997C, SHA1: 21A2EC18C7E4C9B4F98E621BB1559186EA795B9D, SHA256: 9B7C9B49A6F5969C9389C64E38D4B60A7F1977737F79613C4B79B78576AED92C, ED2K: 1B63FB57CC7C36EF4457BFDD3352E059
Screenshots
screenshotscreenshotscreenshotscreenshotscreenshot
SubtitlesAll Attachments | English subs [eng, ASS]
Additional Info
General
Unique ID                                : 132781998004574503901011509324198809583 (0x63E4E1F2497ED628A4FA187A09CD8FEF)
Complete name                            : [SSA] Soukou Musume Senki - 01 [720p].mkv
Format                                   : Matroska
Format version                           : Version 4
File size                                : 215 MiB
Duration                                 : 23 min 47 s
Overall bit rate                         : 1 262 kb/s
Writing application                      : Lavf58.64.100
Writing library                          : Lavf58.64.100
ErrorDetectionType                       : Per level 1

Video
ID                                       : 1
Format                                   : HEVC
Format/Info                              : High Efficiency Video Coding
Format profile                           : Main@L3.1@Main
Codec ID                                 : V_MPEGH/ISO/HEVC
Duration                                 : 23 min 47 s
Bit rate                                 : 7 302 kb/s
Width                                    : 1 280 pixels
Height                                   : 720 pixels
Display aspect ratio                     : 16:9
Frame rate mode                          : Constant
Frame rate                               : 23.976 (23976/1000) FPS
Original frame rate                      : 23.976 (24000/1001) FPS
Color space                              : YUV
Chroma subsampling                       : 4:2:0
Bit depth                                : 8 bits
Bits/(Pixel*Frame)                       : 0.330
Stream size                              : 1.21 GiB
Writing library                          : Lavc58.112.101 libx265
Default                                  : Yes
Forced                                   : No
Color range                              : Limited
Color primaries                          : BT.709
Transfer characteristics                 : BT.709
Matrix coefficients                      : BT.709

Audio
ID                                       : 2
Format                                   : AAC LC
Format/Info                              : Advanced Audio Codec Low Complexity
Codec ID                                 : A_AAC-2
Duration                                 : 23 min 47 s
Bit rate                                 : 253 kb/s
Channel(s)                               : 2 channels
Channel layout                           : L R
Sampling rate                            : 48.0 kHz
Frame rate                               : 46.875 FPS (1024 SPF)
Compression mode                         : Lossy
Delay relative to video                  : -42 ms
Stream size                              : 43.1 MiB (20%)
Writing library                          : Lavc58.112.101 aac
Language                                 : Japanese
Default                                  : Yes
Forced                                   : No

Text
ID                                       : 3
Format                                   : ASS
Codec ID                                 : S_TEXT/ASS
Codec ID/Info                            : Advanced Sub Station Alpha
Duration                                 : 22 min 24 s
Bit rate                                 : 92 b/s
Count of elements                        : 304
Compression mode                         : Lossless
Stream size                              : 15.2 KiB (0%)
Title                                    : English subs
Writing library                          : Lavc58.112.101 ssa
Language                                 : English
Default                                  : Yes
Forced                                   : No

Other Files in this Torrent
[SSA] Soukou Musume Senki - 01 [720p].mkv
beta
Anime DDL+NZB mirror
Current Time: 04/12/2021 08:07



About/FAQs

Discord