File Size447.1 MB (468,787,079 bytes)
DownloadAnonFiles | ClickNUpload | DropAPK | Free | MultiUp
  • BdUpload
  • DownAce
  • Fichier
  • FileCloud
  • Filerio
  • FilesCdn
  • IndiShare
  • Kbagi
  • Turbobit
  • UpToBox
  • Uppit
| SolidFiles | ZippyShare
HashesCRC32: C13A29C8, MD5: ED86C23D3C69BDE5B3FD7BDD4D9DFEDD, SHA1: 7A7B5200DBD3FC73015FEB6E29D03020787B1485, SHA256: 8852A424A7E127FAF5779150E381982FD61FD682C772A37812FE8D3F66405493, ED2K: C2AF5DD078284B7F4148042E1B5A0755
Screenshots
screenshotscreenshotscreenshotscreenshotscreenshot
Additional Info
General
Complete name                            : [SSA] Seishun Buta Yarou wa Yumemiru Shoujo no Yume wo Minai [BD][720p].mp4
Format                                   : MPEG-4
Format profile                           : Base Media
Codec ID                                 : isom (isom/iso2/mp41)
File size                                : 447 MiB
Duration                                 : 1 h 29 min
Overall bit rate mode                    : Variable
Overall bit rate                         : 695 kb/s
Writing application                      : Lavf58.64.100

Video
ID                                       : 1
Format                                   : HEVC
Format/Info                              : High Efficiency Video Coding
Format profile                           : Main@L3.1@Main
Codec ID                                 : hev1
Codec ID/Info                            : High Efficiency Video Coding
Duration                                 : 1 h 29 min
Bit rate                                 : 426 kb/s
Width                                    : 1 280 pixels
Height                                   : 720 pixels
Display aspect ratio                     : 16:9
Frame rate mode                          : Constant
Frame rate                               : 23.976 (24000/1001) FPS
Color space                              : YUV
Chroma subsampling                       : 4:2:0
Bit depth                                : 8 bits
Scan type                                : Progressive
Bits/(Pixel*Frame)                       : 0.019
Stream size                              : 274 MiB (61%)
Language                                 : Japanese
Color range                              : Limited
Color primaries                          : BT.709
Transfer characteristics                 : BT.709
Matrix coefficients                      : BT.709
Codec configuration box                  : hvcC

Audio #1
ID                                       : 2
Format                                   : AAC LC
Format/Info                              : Advanced Audio Codec Low Complexity
Codec ID                                 : mp4a-40-2
Duration                                 : 1 h 29 min
Bit rate mode                            : Variable
Bit rate                                 : 111 kb/s
Maximum bit rate                         : 128 kb/s / 128 kb/s
Channel(s)                               : 2 channels
Channel layout                           : L R
Sampling rate                            : 48.0 kHz
Frame rate                               : 46.875 FPS (1024 SPF)
Compression mode                         : Lossy
Stream size                              : 71.2 MiB (16%)
Title                                    : stereo
Language                                 : Japanese
Default                                  : Yes
Alternate group                          : 1

Audio #2
ID                                       : 3
Format                                   : AAC LC
Format/Info                              : Advanced Audio Codec Low Complexity
Codec ID                                 : mp4a-40-2
Duration                                 : 1 h 29 min
Bit rate mode                            : Constant
Bit rate                                 : 149 kb/s
Channel(s)                               : 3 channels
Channel layout                           : C L R
Sampling rate                            : 48.0 kHz
Frame rate                               : 46.875 FPS (1024 SPF)
Compression mode                         : Lossy
Stream size                              : 95.6 MiB (21%)
Title                                    : 3.0
Language                                 : Japanese
Default                                  : No
Alternate group                          : 1
beta
Anime DDL+NZB mirror
Current Time: 27/07/2021 00:06



About/FAQs