File Size101.8 MB (106,785,668 bytes)
DownloadAnonFiles | ClickNUpload | DropAPK | Free | MultiUp
  • BdUpload
  • DownAce
  • Fichier
  • FileCloud
  • Filerio
  • FilesCdn
  • IndiShare
  • Kbagi
  • Turbobit
  • UpToBox
  • Uppit
| SolidFiles | ZippyShare
HashesCRC32: 20102566, MD5: 5D82B1866CE3FF3ED4FE377FC4C82D0E, SHA1: 960FD8106C947EF16D540B6639AEF391F1FFC6CB, SHA256: 59AF473F97D20AD0DBF6563D8C0120C9755A660A90FDC507F281804DE33C0A80, ED2K: 10A2DFD90638B101BE72F6334B0626CF
Screenshots
screenshotscreenshotscreenshotscreenshotscreenshot
SubtitlesAll Attachments | English subs [eng, ASS]
Additional Info
General
Unique ID                                : 278074379591386880245352219336217076374 (0xD1332D6CDA0A89807D7FD8B454F22296)
Complete name                            : [SSA] Re Zero kara Hajimeru Isekai Seikatsu - 39 [1080p].mkv
Format                                   : Matroska
Format version                           : Version 4
File size                                : 102 MiB
Duration                                 : 28 min 9 s
Overall bit rate                         : 506 kb/s
Writing application                      : Lavf58.64.100
Writing library                          : Lavf58.64.100
ErrorDetectionType                       : Per level 1

Video
ID                                       : 1
Format                                   : HEVC
Format/Info                              : High Efficiency Video Coding
Format profile                           : Main@L4@Main
Codec ID                                 : V_MPEGH/ISO/HEVC
Duration                                 : 28 min 0 s
Bit rate                                 : 7 993 kb/s
Width                                    : 1 920 pixels
Height                                   : 1 080 pixels
Display aspect ratio                     : 16:9
Frame rate mode                          : Variable
Frame rate                               : 23.976 FPS
Color space                              : YUV
Chroma subsampling                       : 4:2:0
Bit depth                                : 8 bits
Bits/(Pixel*Frame)                       : 0.161
Stream size                              : 1.56 GiB
Writing library                          : Lavc58.112.101 libx265
Default                                  : Yes
Forced                                   : No
Color range                              : Limited
Color primaries                          : BT.709
Transfer characteristics                 : BT.709
Matrix coefficients                      : BT.709

Audio
ID                                       : 2
Format                                   : AAC LC
Format/Info                              : Advanced Audio Codec Low Complexity
Codec ID                                 : A_AAC-2
Duration                                 : 28 min 0 s
Bit rate                                 : 128 kb/s
Channel(s)                               : 2 channels
Channel layout                           : L R
Sampling rate                            : 44.1 kHz
Frame rate                               : 43.066 FPS (1024 SPF)
Compression mode                         : Lossy
Stream size                              : 25.6 MiB (25%)
Writing library                          : Lavc58.112.101 aac
Language                                 : Japanese
Default                                  : Yes
Forced                                   : No

Text
ID                                       : 3
Format                                   : ASS
Codec ID                                 : S_TEXT/ASS
Codec ID/Info                            : Advanced Sub Station Alpha
Duration                                 : 28 min 9 s
Bit rate                                 : 139 b/s
Count of elements                        : 457
Compression mode                         : Lossless
Stream size                              : 28.6 KiB (0%)
Title                                    : English subs
Writing library                          : Lavc58.112.101 ssa
Language                                 : English
Default                                  : Yes
Forced                                   : No
beta
Anime DDL+NZB mirror
Current Time: 12/04/2021 14:53



About/FAQs