File Size98.37 MB (103,144,988 bytes)
DownloadAnonFiles | ClickNUpload | DropAPK | Free | MultiUp
  • BdUpload
  • DownAce
  • Fichier
  • FileCloud
  • Filerio
  • FilesCdn
  • IndiShare
  • Kbagi
  • Turbobit
  • UpToBox
  • Uppit
| SolidFiles | ZippyShare
HashesCRC32: 008174AE, MD5: 668DE5A23650CA9189C392FAE0D2B9E0, SHA1: 5C7C07BD86A91A55E5E1364C433DABE69E3D984F, SHA256: 2FA591EB188130E08AC2D2257E5259CA5BBA46E301401D75D8F7683CFAA2FE06, ED2K: 2CEE3B71774B11A0F9FD5B1D8CEB2900
Screenshots
screenshotscreenshotscreenshotscreenshotscreenshot
SubtitlesAll Attachments | eng [ASS]
Additional Info
General
Unique ID                                : 112502904605806479763210088328171982147 (0x54A34572AD61D7A9CA0594CF4E918D43)
Complete name                            : [SSA] One Punch Man - 01 [480p].mkv
Format                                   : Matroska
Format version                           : Version 4
File size                                : 98.4 MiB
Duration                                 : 24 min 25 s
Overall bit rate                         : 563 kb/s
Writing application                      : Lavf58.65.101
Writing library                          : Lavf58.65.101
ErrorDetectionType                       : Per level 1
ENCODER_SETTINGS                         : Redacted, CPU - 2xAMD EPYC 7282 32 cores/64 threads, GPU - None used

Video
ID                                       : 1
Format                                   : HEVC
Format/Info                              : High Efficiency Video Coding
Format profile                           : Main@L3@Main
Codec ID                                 : V_MPEGH/ISO/HEVC
Duration                                 : 24 min 25 s
Bit rate                                 : 5 110 kb/s
Width                                    : 848 pixels
Height                                   : 480 pixels
Display aspect ratio                     : 16:9
Frame rate mode                          : Variable
Frame rate                               : 23.976 FPS
Color space                              : YUV
Chroma subsampling                       : 4:2:0
Bit depth                                : 8 bits
Bits/(Pixel*Frame)                       : 0.524
Stream size                              : 893 MiB
Writing library                          : Lavc58.115.102 libx265
Default                                  : Yes
Forced                                   : No
Color range                              : Limited
Color primaries                          : BT.709
Transfer characteristics                 : BT.709
Matrix coefficients                      : BT.709

Audio
ID                                       : 2
Format                                   : AAC LC
Format/Info                              : Advanced Audio Codec Low Complexity
Codec ID                                 : A_AAC-2
Duration                                 : 24 min 25 s
Bit rate                                 : 192 kb/s
Channel(s)                               : 2 channels
Channel layout                           : L R
Sampling rate                            : 48.0 kHz
Frame rate                               : 46.875 FPS (1024 SPF)
Compression mode                         : Lossy
Stream size                              : 33.1 MiB (34%)
Writing library                          : Lavc58.115.102 aac
Language                                 : Japanese
Default                                  : Yes
Forced                                   : No

Text
ID                                       : 3
Format                                   : ASS
Codec ID                                 : S_TEXT/ASS
Codec ID/Info                            : Advanced Sub Station Alpha
Duration                                 : 24 min 25 s
Bit rate                                 : 75 b/s
Count of elements                        : 248
Compression mode                         : Lossless
Stream size                              : 13.3 KiB (0%)
Writing library                          : Lavc58.115.102 ssa
Language                                 : English
Default                                  : Yes
Forced                                   : No

Other Files in this Torrent
[SSA] One Punch Man - 01 [480p].mkv
beta
Anime DDL+NZB mirror
Current Time: 01/08/2021 19:33



About/FAQs