File Size187.7 MB (196,841,484 bytes)
DownloadAnonFiles | ClickNUpload | DropAPK | Free | MultiUp
  • BdUpload
  • DownAce
  • Fichier
  • FileCloud
  • Filerio
  • FilesCdn
  • IndiShare
  • Kbagi
  • Turbobit
  • UpToBox
  • Uppit
| SolidFiles | ZippyShare
HashesCRC32: DCEA81DB, MD5: 3E626D00E3584CC62D67C0B4EE268C74, SHA1: 17111DC0CC86D027A6AAC4F7AE83B76787C1E366, SHA256: 2D6CE926488C1A5A7C5AEA5FD2C7F4A86BB4729F66ABAFC3F7CC3ED291E14619, ED2K: C09F7E4514034A3377E3774AEB500033
Screenshots
screenshotscreenshotscreenshotscreenshotscreenshot
Additional Info
General
Complete name                            : [SSA] Noblesse - 12 [1080p].mp4
Format                                   : MPEG-4
Format profile                           : Base Media
Codec ID                                 : isom (isom/iso2/mp41)
File size                                : 188 MiB
Duration                                 : 23 min 44 s
Overall bit rate mode                    : Variable
Overall bit rate                         : 1 106 kb/s
Writing application                      : Lavf58.64.100

Video
ID                                       : 1
Format                                   : HEVC
Format/Info                              : High Efficiency Video Coding
Format profile                           : Main@L4@Main
Codec ID                                 : hev1
Codec ID/Info                            : High Efficiency Video Coding
Duration                                 : 23 min 44 s
Bit rate                                 : 915 kb/s
Width                                    : 1 920 pixels
Height                                   : 1 080 pixels
Display aspect ratio                     : 16:9
Frame rate mode                          : Constant
Frame rate                               : 23.976 (24000/1001) FPS
Color space                              : YUV
Chroma subsampling                       : 4:2:0
Bit depth                                : 8 bits
Scan type                                : Progressive
Bits/(Pixel*Frame)                       : 0.018
Stream size                              : 155 MiB (83%)
Color range                              : Limited
Color primaries                          : BT.709
Transfer characteristics                 : BT.709
Matrix coefficients                      : BT.709
Codec configuration box                  : hvcC

Audio
ID                                       : 2
Format                                   : AAC LC
Format/Info                              : Advanced Audio Codec Low Complexity
Codec ID                                 : mp4a-40-2
Duration                                 : 23 min 44 s
Bit rate mode                            : Variable
Bit rate                                 : 183 kb/s
Maximum bit rate                         : 192 kb/s / 192 kb/s
Channel(s)                               : 2 channels
Channel layout                           : L R
Sampling rate                            : 44.1 kHz
Frame rate                               : 43.066 FPS (1024 SPF)
Compression mode                         : Lossy
Stream size                              : 31.1 MiB (17%)
Language                                 : Japanese
Default                                  : Yes
Alternate group                          : 1
beta
Anime DDL+NZB mirror
Current Time: 12/04/2021 15:57



About/FAQs