File Size68.53 MB (71,857,437 bytes)
DownloadAnonFiles | ClickNUpload | DropAPK | Free | MultiUp
  • BdUpload
  • DownAce
  • Fichier
  • FileCloud
  • Filerio
  • FilesCdn
  • IndiShare
  • Kbagi
  • Turbobit
  • UpToBox
  • Uppit
| SolidFiles | ZippyShare
HashesCRC32: 358A1918, MD5: 6F3113FD31016BAB465331AE41D60ADA, SHA1: 23803C95915678D5B0A855544FEFD81469341184, SHA256: 209B90A17A7E5BC2830C81439C0C2A63D304648EDEB19E01FFABAFE58B62A939, ED2K: 013A340B44D9F55319F6C60E42F6D870
Screenshots
screenshotscreenshotscreenshotscreenshotscreenshot
Additional Info
General
Complete name                            : [SSA] Kamisama ni Natta Hi - 12 [480p].mp4
Format                                   : MPEG-4
Format profile                           : Base Media
Codec ID                                 : isom (isom/iso2/mp41)
File size                                : 68.5 MiB
Duration                                 : 24 min 12 s
Overall bit rate mode                    : Variable
Overall bit rate                         : 396 kb/s
Writing application                      : Lavf58.64.100

Video
ID                                       : 1
Format                                   : HEVC
Format/Info                              : High Efficiency Video Coding
Format profile                           : Main@L3@Main
Codec ID                                 : hev1
Codec ID/Info                            : High Efficiency Video Coding
Duration                                 : 24 min 12 s
Bit rate                                 : 302 kb/s
Width                                    : 848 pixels
Height                                   : 480 pixels
Display aspect ratio                     : 16:9
Original display aspect ratio            : 16:9
Frame rate mode                          : Constant
Frame rate                               : 23.976 (24000/1001) FPS
Color space                              : YUV
Chroma subsampling                       : 4:2:0
Bit depth                                : 8 bits
Scan type                                : Progressive
Bits/(Pixel*Frame)                       : 0.031
Stream size                              : 52.3 MiB (76%)
Color range                              : Limited
Color primaries                          : BT.709
Transfer characteristics                 : BT.709
Matrix coefficients                      : BT.709
Codec configuration box                  : hvcC

Audio
ID                                       : 2
Format                                   : AAC LC
Format/Info                              : Advanced Audio Codec Low Complexity
Codec ID                                 : mp4a-40-2
Duration                                 : 24 min 12 s
Bit rate mode                            : Variable
Bit rate                                 : 87.1 kb/s
Maximum bit rate                         : 96.0 kb/s / 96.0 kb/s
Channel(s)                               : 2 channels
Channel layout                           : L R
Sampling rate                            : 48.0 kHz
Frame rate                               : 46.875 FPS (1024 SPF)
Compression mode                         : Lossy
Stream size                              : 15.1 MiB (22%)
Language                                 : Japanese
Default                                  : Yes
Alternate group                          : 1
beta
Anime DDL+NZB mirror
Current Time: 20/10/2021 00:04



About/FAQs

Discord