File Size81.87 MB (85,843,779 bytes)
DownloadAnonFiles | ClickNUpload | DropAPK | MultiUp
  • BdUpload
  • DownAce
  • Fichier
  • FileCloud
  • Filerio
  • FilesCdn
  • IndiShare
  • Kbagi
  • Turbobit
  • UpToBox
  • Uppit
| SolidFiles | ZippyShare
HashesCRC32: 54C5910B, MD5: 294B47AFE38E01DE370669E5AD227B56, SHA1: DE33C8D3A78A8E75CFDEE27AA68DE768FFDB1840, SHA256: B0BE5CE3A2D81B07A175E12BBF9E176D464EF80802E32C5811B1A23EADCCD247, ED2K: 8B2ED24C5E6F1A9C267983480BC34478
Screenshots
screenshotscreenshotscreenshotscreenshotscreenshot
SubtitlesAll Attachments | English subs [eng, ASS]
Additional Info
General
Unique ID                                : 278136485994539367005142139841852404581 (0xD13F2381DDC5AD28CDD5E5E5555EF365)
Complete name                            : [SSA] Isekai Maou to Shoukan Shoujo no Dorei Majutsu S2 - 06 [480p].mkv
Format                                   : Matroska
Format version                           : Version 4
File size                                : 81.9 MiB
Duration                                 : 24 min 5 s
Overall bit rate                         : 475 kb/s
Writing application                      : Lavf58.65.101
Writing library                          : Lavf58.65.101
ErrorDetectionType                       : Per level 1
ENCODER_SETTINGS                         : Redacted, CPU - 2xAMD EPYC 7282 32 cores/64 threads, GPU - None used

Video
ID                                       : 1
Format                                   : HEVC
Format/Info                              : High Efficiency Video Coding
Format profile                           : Main@L3@Main
Codec ID                                 : V_MPEGH/ISO/HEVC
Duration                                 : 24 min 5 s
Bit rate                                 : 7 983 kb/s
Width                                    : 848 pixels
Height                                   : 480 pixels
Display aspect ratio                     : 16:9
Frame rate mode                          : Variable
Frame rate                               : 23.976 FPS
Color space                              : YUV
Chroma subsampling                       : 4:2:0
Bit depth                                : 8 bits
Bits/(Pixel*Frame)                       : 0.818
Stream size                              : 1.34 GiB
Writing library                          : Lavc58.115.102 libx265
Default                                  : Yes
Forced                                   : No
Color range                              : Limited
Color primaries                          : BT.709
Transfer characteristics                 : BT.709
Matrix coefficients                      : BT.709

Audio
ID                                       : 2
Format                                   : AAC LC
Format/Info                              : Advanced Audio Codec Low Complexity
Codec ID                                 : A_AAC-2
Duration                                 : 24 min 5 s
Bit rate                                 : 128 kb/s
Channel(s)                               : 2 channels
Channel layout                           : L R
Sampling rate                            : 44.1 kHz
Frame rate                               : 43.066 FPS (1024 SPF)
Compression mode                         : Lossy
Stream size                              : 22.1 MiB (27%)
Writing library                          : Lavc58.115.102 aac
Language                                 : Japanese
Default                                  : Yes
Forced                                   : No

Text
ID                                       : 3
Format                                   : ASS
Codec ID                                 : S_TEXT/ASS
Codec ID/Info                            : Advanced Sub Station Alpha
Duration                                 : 24 min 5 s
Bit rate                                 : 113 b/s
Count of elements                        : 367
Compression mode                         : Lossless
Stream size                              : 19.8 KiB (0%)
Title                                    : English subs
Writing library                          : Lavc58.115.102 ssa
Language                                 : English
Default                                  : Yes
Forced                                   : No

Other Files in this Torrent
[SSA] Isekai Maou to Shoukan Shoujo no Dorei Majutsu S2 - 06 [480p].mkv
beta
Anime DDL+NZB mirror
Current Time: 27/10/2021 03:15



About/FAQs

Discord