File Size142.1 MB (149,024,848 bytes)
DownloadAnonFiles | ClickNUpload | DropAPK | Free | MultiUp
  • BdUpload
  • DownAce
  • Fichier
  • FileCloud
  • Filerio
  • FilesCdn
  • IndiShare
  • Kbagi
  • Turbobit
  • UpToBox
  • Uppit
| SolidFiles | ZippyShare
HashesCRC32: 90C91E51, MD5: 917EFB0651E87DB25D9E5E794C6DACE3, SHA1: 34E50145C46FF30AB34DB9467E1B283130DCA0F5, SHA256: 27B3E61AE6657EB9DBCE570243355BB398770FFBC3EA43FDF6BA68C501C0FF7F, ED2K: 6DF23483C11BF532C01D8538B62F6052
Screenshots
screenshotscreenshotscreenshotscreenshotscreenshot
SubtitlesAll Attachments | English subs [eng, ASS]
Additional Info
General
Unique ID                                : 294183804228241932397045065036484583404 (0xDD51BD61AD7922729E05298CB9081FEC)
Complete name                            : [SSA] Idolls! - 03 [720p].mkv
Format                                   : Matroska
Format version                           : Version 4
File size                                : 142 MiB
Duration                                 : 8 min 0 s
Overall bit rate                         : 2 484 kb/s
Writing application                      : Lavf58.45.100
Writing library                          : Lavf58.45.100
ErrorDetectionType                       : Per level 1
ENCODER_SETTINGS                         : Redacted, CPU - 2xAMD EPYC 7282 32 cores/64 threads, GPU - None used

Video
ID                                       : 1
Format                                   : HEVC
Format/Info                              : High Efficiency Video Coding
Format profile                           : Main@L3.1@Main
Codec ID                                 : V_MPEGH/ISO/HEVC
Duration                                 : 7 min 59 s
Bit rate                                 : 7 969 kb/s
Width                                    : 1 280 pixels
Height                                   : 720 pixels
Display aspect ratio                     : 16:9
Frame rate mode                          : Variable
Frame rate                               : 29.970 (29970/1000) FPS
Original frame rate                      : 29.970 (30000/1001) FPS
Color space                              : YUV
Chroma subsampling                       : 4:2:0
Bit depth                                : 8 bits
Bits/(Pixel*Frame)                       : 0.289
Stream size                              : 456 MiB
Writing library                          : Lavc58.91.100 libx265
Default                                  : Yes
Forced                                   : No
Color range                              : Limited
Color primaries                          : BT.709
Transfer characteristics                 : BT.709
Matrix coefficients                      : BT.709

Audio
ID                                       : 2
Format                                   : AAC LC
Format/Info                              : Advanced Audio Codec Low Complexity
Codec ID                                 : A_AAC-2
Duration                                 : 8 min 0 s
Bit rate                                 : 128 kb/s
Channel(s)                               : 2 channels
Channel layout                           : L R
Sampling rate                            : 44.1 kHz
Frame rate                               : 43.066 FPS (1024 SPF)
Compression mode                         : Lossy
Stream size                              : 7.32 MiB (5%)
Writing library                          : Lavc58.91.100 aac
Language                                 : Japanese
Default                                  : Yes
Forced                                   : No

Text
ID                                       : 3
Format                                   : ASS
Codec ID                                 : S_TEXT/ASS
Codec ID/Info                            : Advanced Sub Station Alpha
Duration                                 : 6 min 34 s
Bit rate                                 : 301 b/s
Count of elements                        : 128
Compression mode                         : Lossless
Stream size                              : 11.2 KiB (0%)
Title                                    : English subs
Writing library                          : Lavc58.91.100 ssa
Language                                 : English
Default                                  : Yes
Forced                                   : No
beta
Anime DDL+NZB mirror
Current Time: 16/04/2021 17:43



About/FAQs