File Size210.4 MB (220,626,280 bytes)
DownloadAnonFiles | ClickNUpload | DropAPK | Free | MultiUp
  • BdUpload
  • DownAce
  • Fichier
  • FileCloud
  • Filerio
  • FilesCdn
  • IndiShare
  • Kbagi
  • Turbobit
  • UpToBox
  • Uppit
| SolidFiles | ZippyShare
HashesCRC32: D5E008F2, MD5: 7148757AA865EBC79BF8DEE55583AC1C, SHA1: 31E74874351FFFFE9AA3C98D9D2E8DB720FCFF82, SHA256: 98451E341DFCBC683DF660C1508B4C98D5ABEB23B9CDFF55017BED3AB29B4C56, ED2K: 572A1DBA5AF287C527C86E2509009551
Screenshots
screenshotscreenshotscreenshotscreenshotscreenshot
Additional Info
General
Complete name                            : [SSA] Hanyou no Yashahime - Sengoku Otogizoushi - 08 [1080p].mp4
Format                                   : MPEG-4
Format profile                           : Base Media
Codec ID                                 : isom (isom/iso2/mp41)
File size                                : 210 MiB
Duration                                 : 24 min 9 s
Overall bit rate mode                    : Variable
Overall bit rate                         : 1 217 kb/s
Writing application                      : Lavf58.64.100

Video
ID                                       : 1
Format                                   : HEVC
Format/Info                              : High Efficiency Video Coding
Format profile                           : Main@L5@High
Codec ID                                 : hev1
Codec ID/Info                            : High Efficiency Video Coding
Duration                                 : 24 min 9 s
Bit rate                                 : 1 092 kb/s
Width                                    : 1 920 pixels
Height                                   : 1 080 pixels
Display aspect ratio                     : 16:9
Frame rate mode                          : Constant
Frame rate                               : 23.976 (24000/1001) FPS
Color space                              : YUV
Chroma subsampling                       : 4:2:0
Bit depth                                : 8 bits
Scan type                                : Progressive
Bits/(Pixel*Frame)                       : 0.022
Stream size                              : 189 MiB (90%)
Language                                 : Japanese
Color range                              : Limited
Color primaries                          : BT.709
Transfer characteristics                 : BT.709
Matrix coefficients                      : BT.709
Codec configuration box                  : hvcC

Audio
ID                                       : 2
Format                                   : AAC LC
Format/Info                              : Advanced Audio Codec Low Complexity
Codec ID                                 : mp4a-40-2
Duration                                 : 24 min 9 s
Bit rate mode                            : Variable
Bit rate                                 : 118 kb/s
Maximum bit rate                         : 128 kb/s / 128 kb/s
Channel(s)                               : 2 channels
Channel layout                           : L R
Sampling rate                            : 44.1 kHz
Frame rate                               : 43.066 FPS (1024 SPF)
Compression mode                         : Lossy
Stream size                              : 20.3 MiB (10%)
Language                                 : Japanese
Default                                  : Yes
Alternate group                          : 1
beta
Anime DDL+NZB mirror
Current Time: 22/01/2021 12:41



About/FAQs