File Size245.5 MB (257,376,029 bytes)
DownloadAnonFiles | ClickNUpload | DropAPK | MultiUp
  • BdUpload
  • DownAce
  • Fichier
  • FileCloud
  • Filerio
  • FilesCdn
  • IndiShare
  • Kbagi
  • Turbobit
  • UpToBox
  • Uppit
| SolidFiles | ZippyShare
HashesCRC32: 4AE4F3C9, MD5: BEF4360292ADA5A395B6C8008EB1799B, SHA1: 00AA4F9BA4AC826B11ADD36705EC7C770388A5A3, SHA256: 8DCDFA976BBD41F6093DAFE958B742D1D0B15B9B2D7E7EAA141BE7D29FB35D7B, ED2K: 27778B3F1DA6F4A2F881AEC1F9518F6E
Screenshots
screenshotscreenshotscreenshotscreenshotscreenshot
SubtitlesAll Attachments | English subs [eng, ASS]
Additional Info
General
Unique ID                                : 222178230954528439544682263566165873600 (0xA725F8864252E3A6EC6CA98BD96213C0)
Complete name                            : [SSA] Bakuten!! - 10 [1080p].mkv
Format                                   : Matroska
Format version                           : Version 4
File size                                : 245 MiB
Duration                                 : 22 min 55 s
Overall bit rate                         : 1 497 kb/s
Writing application                      : Lavf58.65.101
Writing library                          : Lavf58.65.101
ErrorDetectionType                       : Per level 1
ENCODER_SETTINGS                         : Redacted, CPU - 2xAMD EPYC 7282 32 cores/64 threads, GPU - None used

Video
ID                                       : 1
Format                                   : HEVC
Format/Info                              : High Efficiency Video Coding
Format profile                           : Main@L4@Main
Codec ID                                 : V_MPEGH/ISO/HEVC
Duration                                 : 22 min 55 s
Bit rate                                 : 7 941 kb/s
Width                                    : 1 920 pixels
Height                                   : 1 080 pixels
Display aspect ratio                     : 16:9
Frame rate mode                          : Variable
Frame rate                               : 23.976 FPS
Color space                              : YUV
Chroma subsampling                       : 4:2:0
Bit depth                                : 8 bits
Bits/(Pixel*Frame)                       : 0.160
Stream size                              : 1.27 GiB
Writing library                          : Lavc58.115.102 libx265
Default                                  : Yes
Forced                                   : No
Color range                              : Limited
Color primaries                          : BT.709
Transfer characteristics                 : BT.709
Matrix coefficients                      : BT.709

Audio
ID                                       : 2
Format                                   : AAC LC
Format/Info                              : Advanced Audio Codec Low Complexity
Codec ID                                 : A_AAC-2
Duration                                 : 22 min 55 s
Bit rate                                 : 128 kb/s
Channel(s)                               : 2 channels
Channel layout                           : L R
Sampling rate                            : 44.1 kHz
Frame rate                               : 43.066 FPS (1024 SPF)
Compression mode                         : Lossy
Stream size                              : 21.0 MiB (9%)
Writing library                          : Lavc58.115.102 aac
Language                                 : Japanese
Default                                  : Yes
Forced                                   : No

Text
ID                                       : 3
Format                                   : ASS
Codec ID                                 : S_TEXT/ASS
Codec ID/Info                            : Advanced Sub Station Alpha
Duration                                 : 21 min 25 s
Bit rate                                 : 122 b/s
Count of elements                        : 321
Compression mode                         : Lossless
Stream size                              : 19.1 KiB (0%)
Title                                    : English subs
Writing library                          : Lavc58.115.102 ssa
Language                                 : English
Default                                  : Yes
Forced                                   : No
beta
Anime DDL+NZB mirror
Current Time: 24/09/2021 11:13



About/FAQs