File Size13.67 MB (14,337,991 bytes)
DownloadAnonFiles | ClickNUpload | DropAPK | Free | MultiUp
  • BdUpload
  • DownAce
  • Fichier
  • FileCloud
  • Filerio
  • FilesCdn
  • IndiShare
  • Kbagi
  • Turbobit
  • UpToBox
  • Uppit
| SolidFiles | ZippyShare
HashesCRC32: 4CF965D8, MD5: 7862DD6069111FB6C7565B2A74BFBC26, SHA1: B1F905F55C0846628A2559C0AB0EAE7C810854B1, SHA256: ACBA8A6A9DA96C013394701EF83E940F7D4801B465A130924ADC335467E137CD, ED2K: 24A41C25DF076C15345DAAE43229B5DC
Screenshots
screenshotscreenshotscreenshot
SubtitlesAll Attachments | English subs [eng, ASS]
Additional Info
General
Unique ID                                : 170658982335325995082828943628831831629 (0x8063B974A0534939317827B90A40364D)
Complete name                            : [SSA] Abciee Shuugyou Nikki - 03 [720p].mkv
Format                                   : Matroska
Format version                           : Version 4
File size                                : 13.7 MiB
Duration                                 : 2 min 50 s
Overall bit rate                         : 674 kb/s
Writing application                      : Lavf58.45.100
Writing library                          : Lavf58.45.100
ErrorDetectionType                       : Per level 1
ENCODER_SETTINGS                         : Redacted, CPU - 2xAMD EPYC 7282 32 cores/64 threads, GPU - None used.

Video
ID                                       : 1
Format                                   : HEVC
Format/Info                              : High Efficiency Video Coding
Format profile                           : Main@L3.1@Main
Codec ID                                 : V_MPEGH/ISO/HEVC
Duration                                 : 2 min 50 s
Bit rate                                 : 7 975 kb/s
Width                                    : 1 280 pixels
Height                                   : 720 pixels
Display aspect ratio                     : 16:9
Frame rate mode                          : Variable
Frame rate                               : 23.976 (23976/1000) FPS
Original frame rate                      : 23.976 (24000/1001) FPS
Color space                              : YUV
Chroma subsampling                       : 4:2:0
Bit depth                                : 8 bits
Bits/(Pixel*Frame)                       : 0.361
Stream size                              : 162 MiB
Writing library                          : Lavc58.91.100 libx265
Default                                  : Yes
Forced                                   : No
Color range                              : Limited
Color primaries                          : BT.709
Transfer characteristics                 : BT.709
Matrix coefficients                      : BT.709

Audio
ID                                       : 2
Format                                   : AAC LC
Format/Info                              : Advanced Audio Codec Low Complexity
Codec ID                                 : A_AAC-2
Duration                                 : 2 min 50 s
Bit rate                                 : 128 kb/s
Channel(s)                               : 2 channels
Channel layout                           : L R
Sampling rate                            : 44.1 kHz
Frame rate                               : 43.066 FPS (1024 SPF)
Compression mode                         : Lossy
Stream size                              : 2.60 MiB (19%)
Writing library                          : Lavc58.91.100 aac
Language                                 : Japanese
Default                                  : Yes
Forced                                   : No

Text
ID                                       : 3
Format                                   : ASS
Codec ID                                 : S_TEXT/ASS
Codec ID/Info                            : Advanced Sub Station Alpha
Duration                                 : 2 min 46 s
Bit rate                                 : 277 b/s
Count of elements                        : 69
Compression mode                         : Lossless
Stream size                              : 5.64 KiB (0%)
Title                                    : English subs
Writing library                          : Lavc58.91.100 ssa
Language                                 : English
Default                                  : Yes
Forced                                   : No
beta
Anime DDL+NZB mirror
Current Time: 12/04/2021 16:57



About/FAQs