[SquareSubs] Bakusou Kyoudai Let's & Go!! WGP 11.mkv


File Size253.0 MB (265,316,899 bytes)
DownloadClickNUpload | Jheberg | MultiUp
  • BdUpload
  • DownAce
  • Fichier
  • FileCloud
  • Filerio
  • FilesCdn
  • IndiShare
  • Kbagi
  • Turbobit
  • UpToBox
  • Uppit
| OpenLoad | Sendspace | SolidFiles | ZippyShare
HashesCRC32: 3C32FC22, MD5: C2E6EEDA332D816391F56643C17FE398, SHA1: 4A1C1D91FCA1274F9F61E71928A7F073784BAAD7, SHA256: 5430A731590785148A98172F096BFA9D46EEE9BA0DCD4CC6945F44DD0BB1374C, ED2K: 33F70BA2F189B3F23671EC2E96F4718A
Screenshots
screenshotscreenshotscreenshotscreenshotscreenshot
SubtitlesAll Attachments | und [ASS], und [ASS]
Additional Info
General
Unique ID                                : 234210722164454165761169543104322656102 (0xB0335824C9302C2EC82B190FD6A8D766)
Complete name                            : [SquareSubs] Bakusou Kyoudai Let's & Go!! WGP 11.mkv
Format                                   : Matroska
Format version                           : Version 4
File size                                : 253 MiB
Duration                                 : 23 min 26 s
Overall bit rate                         : 1 510 kb/s
Encoded date                             : UTC 2019-09-18 15:48:14 / UTC 2019-02-07T06:49:57Z
Writing application                      : mkvmerge v28.2.0 ('The Awakening') 64-bit
Writing library                          : libebml v1.3.6 + libmatroska v1.4.9 / Lavf57.7.2
Attachments                              : 123Marker_0.ttf / 6911542873_0.ttf / A750-Sans-Oldface-Regular_0.ttf / arial_0.ttf / ariblk_0.ttf / ArtificeSSK_0.ttf / bip_0.ttf / calibrib_0.ttf / Dosmilcatorce_0.ttf / Dry Brush_0.ttf / LuxiSubSans-Bold_0.ttf / LuxiSubSans-BoldItalic_0.ttf / NIRMALAB_0.TTF / OpenSans-Bold_0.ttf / OpenSans-BoldItalic_0.ttf / OpenSans-Semibold_0.ttf / segoepr_0.ttf / SEGOEUISL_0.TTF / ufonts.com_blambot-pro_0.ttf

Video
ID                                       : 3
Format                                   : AVC
Format/Info                              : Advanced Video Codec
Format profile                           : High 10@L3
Format settings                          : CABAC / 4 Ref Frames
Format settings, CABAC                   : Yes
Format settings, ReFrames                : 4 frames
Codec ID                                 : V_MPEG4/ISO/AVC
Duration                                 : 23 min 26 s
Bit rate                                 : 1 224 kb/s
Width                                    : 640 pixels
Height                                   : 480 pixels
Display aspect ratio                     : 4:3
Frame rate mode                          : Constant
Frame rate                               : 23.976 (24000/1001) FPS
Color space                              : YUV
Chroma subsampling                       : 4:2:0
Bit depth                                : 10 bits
Scan type                                : Progressive
Bits/(Pixel*Frame)                       : 0.166
Stream size                              : 205 MiB (81%)
Writing library                          : x264 core 155 r2901 7d0ff22
Encoding settings                        : cabac=1 / ref=3 / deblock=1:0:0 / analyse=0x3:0x113 / me=hex / subme=7 / psy=1 / psy_rd=1.00:0.00 / mixed_ref=1 / me_range=16 / chroma_me=1 / trellis=1 / 8x8dct=1 / cqm=0 / deadzone=21,11 / fast_pskip=1 / chroma_qp_offset=-2 / threads=12 / lookahead_threads=2 / sliced_threads=0 / nr=0 / decimate=1 / interlaced=0 / bluray_compat=0 / constrained_intra=0 / bframes=3 / b_pyramid=2 / b_adapt=1 / b_bias=0 / direct=1 / weightb=1 / open_gop=0 / weightp=2 / keyint=240 / keyint_min=24 / scenecut=40 / intra_refresh=0 / rc_lookahead=40 / rc=crf / mbtree=1 / crf=20.0 / qcomp=0.60 / qpmin=0 / qpmax=81 / qpstep=4 / ip_ratio=1.40 / aq=1:1.00
Default                                  : Yes
Forced                                   : No
Color range                              : Limited
Color primaries                          : BT.709
Transfer characteristics                 : BT.709
Matrix coefficients                      : BT.709
Statistics Tags Issue                    : mkvmerge v28.2.0 ('The Awakening') 64-bit 2019-09-18 15:48:14 / mkvmerge v28.2.0 ('The Awakening') 64-bit 2019-09-18 15:48:14 / UTC 2019-02-07T06:49:57Z
FromStats_BitRate                        : 1219043
FromStats_Duration                       : 00:23:26.030000000
FromStats_FrameCount                     : 33711
FromStats_StreamSize                     : 214251405

Audio
ID                                       : 4
Format                                   : AC-3
Format/Info                              : Audio Coding 3
Commercial name                          : Dolby Digital
Codec ID                                 : A_AC3
Duration                                 : 23 min 26 s
Bit rate mode                            : Constant
Bit rate                                 : 256 kb/s
Channel(s)                               : 2 channels
Channel layout                           : L R
Sampling rate                            : 48.0 kHz
Frame rate                               : 31.250 FPS (1536 SPF)
Bit depth                                : 16 bits
Compression mode                         : Lossy
Stream size                              : 42.9 MiB (17%)
Title                                    : Stereo
Language                                 : Japanese
Service kind                             : Complete Main
Default                                  : Yes
Forced                                   : No
Statistics Tags Issue                    : mkvmerge v28.2.0 ('The Awakening') 64-bit 2019-09-18 15:48:14 / mkvmerge v28.2.0 ('The Awakening') 64-bit 2019-09-18 15:48:14 / UTC 2019-02-07T06:49:57Z
FromStats_BitRate                        : 256000
FromStats_Duration                       : 00:23:26.016000000
FromStats_FrameCount                     : 43938
FromStats_StreamSize                     : 44992512

Text #1
ID                                       : 1
Format                                   : ASS
Codec ID                                 : S_TEXT/ASS
Codec ID/Info                            : Advanced Sub Station Alpha
Compression mode                         : Lossless
Default                                  : Yes
Forced                                   : No
Statistics Tags Issue                    : mkvmerge v28.2.0 ('The Awakening') 64-bit 2019-09-18 15:48:14 / mkvmerge v28.2.0 ('The Awakening') 64-bit 2019-09-18 15:48:14 / UTC 2019-02-07T06:49:57Z
FromStats_BitRate                        : 117
FromStats_Duration                       : 00:23:21.030000000
FromStats_FrameCount                     : 311
FromStats_StreamSize                     : 20577

Text #2
ID                                       : 2
Format                                   : ASS
Codec ID                                 : S_TEXT/ASS
Codec ID/Info                            : Advanced Sub Station Alpha
Compression mode                         : Lossless
Default                                  : No
Forced                                   : No
Statistics Tags Issue                    : mkvmerge v28.2.0 ('The Awakening') 64-bit 2019-09-18 15:48:14 / mkvmerge v28.2.0 ('The Awakening') 64-bit 2019-09-18 15:48:14 / UTC 2019-02-07T06:49:57Z
FromStats_BitRate                        : 32
FromStats_Duration                       : 00:00:05.000000000
FromStats_FrameCount                     : 1
FromStats_StreamSize                     : 20
beta
Anime DDL+NZB mirror
Current Time: 12/11/2019 03:05



About/FAQs