File Size196.1 MB (205,676,480 bytes)
DownloadAnonFiles | ClickNUpload | DownloadGG | KrakenFiles | MultiUp
  • BdUpload
  • DownAce
  • Fichier
  • FileCloud
  • Filerio
  • FilesCdn
  • IndiShare
  • Kbagi
  • Turbobit
  • UpToBox
  • Uppit
| ZippyShare
HashesCRC32: C505CDB6, MD5: 5EDC47B401CCB3433BF94F04E1107D74, SHA1: 2ECD1EAF45E4E12A6647880AFC75803872D2500F, SHA256: 55EA4CA12059459A0CD17EE4EB8F0091CC44B01B4D158265820CCFF885AB2A03, ED2K: B5A456B267AA1BC07312A34127F5113F
Screenshots
screenshotscreenshotscreenshotscreenshotscreenshot
SubtitlesAll Attachments | English [eng, ASS]
Additional Info
General
Unique ID                                : 72481491057120953934139821037515952154 (0x36876D6A5A7A1BACB0C4EF1281BBD01A)
Complete name                            : [South Wind Subs] Raccoon Rascal - 32 [C505CDB6].mkv
Format                                   : Matroska
Format version                           : Version 4
File size                                : 196 MiB
Duration                                 : 25 min 48 s
Overall bit rate                         : 1 063 kb/s
Movie name                               : [South Wind Subs] Raccoon Rascal - 32
Encoded date                             : UTC 2023-02-28 20:34:01
Writing application                      : mkvmerge v65.0.0 ('Too Much') 64-bit
Writing library                          : libebml v1.4.2 + libmatroska v1.6.3
Attachments                              : kabayan-SWS.ttf / Coiny-Regular.ttf / Carlito-Regular.ttf / Carlito-Italic.ttf / Carlito-BoldItalic.ttf / Carlito-Bold.ttf

Video
ID                                       : 1
Format                                   : AVC
Format/Info                              : Advanced Video Codec
Format profile                           : Main@L3.1
Format settings                          : CABAC / 4 Ref Frames
Format settings, CABAC                   : Yes
Format settings, Reference frames        : 4 frames
Codec ID                                 : V_MPEG4/ISO/AVC
Duration                                 : 25 min 48 s
Bit rate                                 : 885 kb/s
Width                                    : 640 pixels
Height                                   : 480 pixels
Display aspect ratio                     : 4:3
Frame rate mode                          : Constant
Frame rate                               : 23.976 (23976/1000) FPS
Color space                              : YUV
Chroma subsampling                       : 4:2:0
Bit depth                                : 8 bits
Scan type                                : Progressive
Bits/(Pixel*Frame)                       : 0.120
Stream size                              : 163 MiB (83%)
Title                                    : Video
Writing library                          : x264 core 155 r2917 0a84d98
Encoding settings                        : cabac=1 / ref=3 / deblock=1:0:0 / analyse=0x1:0x111 / me=hex / subme=7 / psy=1 / psy_rd=1,00:0,00 / mixed_ref=1 / me_range=16 / chroma_me=1 / trellis=1 / 8x8dct=0 / cqm=0 / deadzone=21,11 / fast_pskip=1 / chroma_qp_offset=-2 / threads=6 / lookahead_threads=1 / sliced_threads=0 / nr=0 / decimate=1 / interlaced=0 / bluray_compat=0 / constrained_intra=0 / bframes=3 / b_pyramid=2 / b_adapt=1 / b_bias=0 / direct=1 / weightb=1 / open_gop=0 / weightp=2 / keyint=240 / keyint_min=24 / scenecut=40 / intra_refresh=0 / rc_lookahead=40 / rc=crf / mbtree=1 / crf=20,0 / qcomp=0,60 / qpmin=0 / qpmax=69 / qpstep=4 / vbv_maxrate=14000 / vbv_bufsize=14000 / crf_max=0,0 / nal_hrd=none / filler=0 / ip_ratio=1,40 / aq=1:1,00
Default                                  : Yes
Forced                                   : No
Color range                              : Limited
Color primaries                          : BT.601 NTSC
Transfer characteristics                 : BT.709
Matrix coefficients                      : BT.601

Audio
ID                                       : 2
Format                                   : AAC LC
Format/Info                              : Advanced Audio Codec Low Complexity
Codec ID                                 : A_AAC-2
Duration                                 : 25 min 48 s
Bit rate                                 : 160 kb/s
Channel(s)                               : 2 channels
Channel layout                           : L R
Sampling rate                            : 48.0 kHz
Frame rate                               : 46.875 FPS (1024 SPF)
Compression mode                         : Lossy
Delay relative to video                  : -21 ms
Stream size                              : 29.6 MiB (15%)
Title                                    : Audio (jpn)
Language                                 : Japanese
Default                                  : Yes
Forced                                   : No

Text
ID                                       : 3
Format                                   : ASS
Codec ID                                 : S_TEXT/ASS
Codec ID/Info                            : Advanced Sub Station Alpha
Duration                                 : 25 min 48 s
Bit rate                                 : 91 b/s
Count of elements                        : 255
Compression mode                         : Lossless
Stream size                              : 17.2 KiB (0%)
Title                                    : English
Language                                 : English
Default                                  : Yes
Forced                                   : No

Menu
00:00:00.000                             : en:Opening
00:01:21.490                             : en:Part A
00:14:14.520                             : en:Part B
00:23:51.800                             : en:Preview
00:24:31.800                             : en:Ending
beta
Anime DDL+NZB mirror
Current Time: 22/06/2024 19:57



About/FAQs

Discord