[Sokudo] Ninja Kamui - S01E08 [1080p AV1][dual audio].mkv


File Size276.1 MB (289,563,819 bytes)
DownloadClickNUpload | DailyUploads | DownloadGG | GoFile | KrakenFiles | MdiaLoad | MultiUp
  • BdUpload
  • DownAce
  • Fichier
  • FileCloud
  • Filerio
  • FilesCdn
  • IndiShare
  • Kbagi
  • Turbobit
  • UpToBox
  • Uppit
| Uppit
HashesCRC32: 4FB1E509, MD5: 939F05E11C23832B20CAF5AEC82A625E, SHA1: 7A2D4E015DAFA5A80F0F85854E41607614B02702, SHA256: 6EC345DFBF4711367538DA72C66CFC13CFB896374FDCEC65147A4FE9320AB2E5, ED2K: 60D68D6527F3031FBC0F42537C723FD0
Screenshots
screenshotscreenshotscreenshotscreenshotscreenshot
SubtitlesAll Attachments | English [Vodes] [eng, ASS], English Signs & Songs [eng, ASS]
Additional Info
General
Unique ID                                : 16806257263470327469954240159285645166 (0xCA4C475178127F60C4B38BDB3360F6E)
Complete name                            : [Sokudo] Ninja Kamui - S01E08 [1080p AV1][dual audio].mkv
Format                                   : Matroska
Format version                           : Version 4
File size                                : 276 MiB
Duration                                 : 23 min 12 s
Overall bit rate                         : 1 663 kb/s
Frame rate                               : 23.976 FPS
Encoded date                             : 2024-04-02 00:01:44 UTC
Writing application                      : mkvmerge v82.0 ('I'm The President') 64-bit
Writing library                          : libebml v1.4.4 + libmatroska v1.7.1
Attachments                              : AerodbTr.ttf / AlumniSansMedium-Medium.ttf / Fot-udkakugo_largeProDb-SemiBold.otf / GandhiSans-Bold.OTF / GandhiSans-BoldItalic.OTF
Encoder_settings                         : svt-av1-psy: --preset 4 --crf 24 --film-grain 9 --variance-boost-strength 2 --variance-octile 4 --lp 2 --sharpness 2 --tune 3 --aq-mode 2 --enable-cdef 1 --keyint 240 --irefresh-type 1 --scd 0 --enable-tf 0 --color-primaries 1 --transfer-characteristics 1 --matrix-coefficients 1

Video
ID                                       : 1
Format                                   : AV1
Format/Info                              : AOMedia Video 1
Format profile                           : Main@L4.0
Codec ID                                 : V_AV1
Duration                                 : 23 min 12 s
Bit rate                                 : 1 191 kb/s
Width                                    : 1 920 pixels
Height                                   : 1 080 pixels
Display aspect ratio                     : 16:9
Frame rate mode                          : Constant
Frame rate                               : 23.976 (24000/1001) FPS
Color space                              : YUV
Chroma subsampling                       : 4:2:0
Bit depth                                : 10 bits
Bits/(Pixel*Frame)                       : 0.024
Stream size                              : 198 MiB (72%)
Default                                  : No
Forced                                   : No
Color range                              : Limited
Color primaries                          : BT.709
Transfer characteristics                 : BT.709
Matrix coefficients                      : BT.709

Audio #1
ID                                       : 2
Format                                   : E-AC-3
Format/Info                              : Enhanced AC-3
Commercial name                          : Dolby Digital Plus
Codec ID                                 : A_EAC3
Duration                                 : 23 min 12 s
Bit rate mode                            : Constant
Bit rate                                 : 224 kb/s
Channel(s)                               : 2 channels
Channel layout                           : L R
Sampling rate                            : 48.0 kHz
Frame rate                               : 31.250 FPS (1536 SPF)
Bit depth                                : 32 bits
Compression mode                         : Lossy
Stream size                              : 37.2 MiB (13%)
Title                                    : Japanese 2.0 (Amazon)
Language                                 : Japanese
Service kind                             : Complete Main
Default                                  : Yes
Forced                                   : No

Audio #2
ID                                       : 3
Format                                   : E-AC-3
Format/Info                              : Enhanced AC-3
Commercial name                          : Dolby Digital Plus
Codec ID                                 : A_EAC3
Duration                                 : 23 min 12 s
Bit rate mode                            : Constant
Bit rate                                 : 224 kb/s
Channel(s)                               : 2 channels
Channel layout                           : L R
Sampling rate                            : 48.0 kHz
Frame rate                               : 31.250 FPS (1536 SPF)
Bit depth                                : 32 bits
Compression mode                         : Lossy
Stream size                              : 37.2 MiB (13%)
Title                                    : English 2.0 (Amazon)
Language                                 : English
Service kind                             : Complete Main
Default                                  : Yes
Forced                                   : No

Text #1
ID                                       : 4
Format                                   : ASS
Codec ID                                 : S_TEXT/ASS
Codec ID/Info                            : Advanced Sub Station Alpha
Duration                                 : 22 min 45 s
Bit rate                                 : 152 b/s
Frame rate                               : 0.270 FPS
Count of elements                        : 368
Compression mode                         : Lossless
Stream size                              : 25.3 KiB (0%)
Title                                    : English [Vodes]
Language                                 : English
Default                                  : Yes
Forced                                   : No

Text #2
ID                                       : 5
Format                                   : ASS
Codec ID                                 : S_TEXT/ASS
Codec ID/Info                            : Advanced Sub Station Alpha
Duration                                 : 20 min 23 s
Bit rate                                 : 65 b/s
Frame rate                               : 0.080 FPS
Count of elements                        : 98
Compression mode                         : Lossless
Stream size                              : 9.78 KiB (0%)
Title                                    : English Signs & Songs
Language                                 : English
Default                                  : No
Forced                                   : Yes

Menu
00:00:00.000                             : Prologue
00:02:19.310                             : Opening
00:03:49.310                             : Episode
00:21:28.870                             : Ending/Credits
beta
Anime DDL+NZB mirror
Current Time: 28/05/2024 07:45



About/FAQs

Discord