File Size643.4 MB (674,696,010 bytes)
DownloadClickNUpload | DownloadGG | KrakenFiles
MultiUp: Part1
  • BdUpload
  • DownAce
  • Fichier
  • FileCloud
  • Filerio
  • FilesCdn
  • IndiShare
  • Kbagi
  • Turbobit
  • UpToBox
  • Uppit
, Part2
  • BdUpload
  • DownAce
  • Fichier
  • FileCloud
  • Filerio
  • FilesCdn
  • IndiShare
  • Kbagi
  • Turbobit
  • UpToBox
  • Uppit

ZippyShare: Part1, Part2
HashesCRC32: EA734155, MD5: 2ABACF1C8F0546E5BFE6CB8B87F66E2D, SHA1: C1820ECF0A78360D522441FC3F4C91F3889C2417, SHA256: 488587778ADEA856D0E692F3B386F9E3DA720FD02ED18A6291BA1264B96A695E, ED2K: BDD4F9A870869E1388FD0F89876680C6
Screenshots
screenshotscreenshotscreenshotscreenshotscreenshot
SubtitlesAll Attachments | Sub EspaƱol by Galumis [spa, ASS], English [eng, ASS], Sub Portuguese by Galumis [por, ASS]
Additional Info
General
Unique ID                                : 229198499421196456249540162660894833723 (0xAC6E067BA8C40B2E10A38505ECD4FC3B)
Complete name                            : Shokei Shoujo no Virgin Road 07 [1080p][ESP-ENG-POR].mkv
Format                                   : Matroska
Format version                           : Version 4
File size                                : 643 MiB
Duration                                 : 23 min 40 s
Overall bit rate                         : 3 801 kb/s
Encoded date                             : UTC 2022-05-13 22:30:16
Writing application                      : mkvmerge v67.0.0 ('Under Stars') 64-bit
Writing library                          : libebml v1.4.2 + libmatroska v1.6.4
Attachments                              : NotoSans-Medium.ttf

Video
ID                                       : 1
Format                                   : HEVC
Format/Info                              : High Efficiency Video Coding
Format profile                           : Main@L5@Main
Codec ID                                 : V_MPEGH/ISO/HEVC
Duration                                 : 23 min 40 s
Bit rate                                 : 3 482 kb/s
Width                                    : 1 920 pixels
Height                                   : 1 080 pixels
Display aspect ratio                     : 16:9
Frame rate mode                          : Constant
Frame rate                               : 23.976 (24000/1001) FPS
Original frame rate                      : 23.976 (23976/1000) FPS
Color space                              : YUV
Chroma subsampling                       : 4:2:0
Bit depth                                : 8 bits
Bits/(Pixel*Frame)                       : 0.070
Stream size                              : 589 MiB (92%)
Default                                  : Yes
Forced                                   : No
Color range                              : Limited
Color primaries                          : BT.709
Transfer characteristics                 : BT.709
Matrix coefficients                      : BT.709

Audio
ID                                       : 2
Format                                   : AAC LC
Format/Info                              : Advanced Audio Codec Low Complexity
Codec ID                                 : A_AAC-2
Duration                                 : 23 min 40 s
Bit rate                                 : 315 kb/s
Channel(s)                               : 2 channels
Channel layout                           : L R
Sampling rate                            : 48.0 kHz
Frame rate                               : 46.875 FPS (1024 SPF)
Compression mode                         : Lossy
Stream size                              : 53.3 MiB (8%)
Title                                    : Japanese
Language                                 : Japanese
Default                                  : Yes
Forced                                   : No

Text #1
ID                                       : 3
Format                                   : ASS
Codec ID                                 : S_TEXT/ASS
Codec ID/Info                            : Advanced Sub Station Alpha
Duration                                 : 23 min 38 s
Bit rate                                 : 129 b/s
Count of elements                        : 421
Compression mode                         : Lossless
Stream size                              : 22.4 KiB (0%)
Title                                    : Sub EspaƱol by Galumis
Language                                 : Spanish
Default                                  : Yes
Forced                                   : No

Text #2
ID                                       : 4
Format                                   : ASS
Codec ID                                 : S_TEXT/ASS
Codec ID/Info                            : Advanced Sub Station Alpha
Duration                                 : 23 min 38 s
Bit rate                                 : 125 b/s
Count of elements                        : 421
Compression mode                         : Lossless
Stream size                              : 21.8 KiB (0%)
Title                                    : English
Language                                 : English
Default                                  : Yes
Forced                                   : No

Text #3
ID                                       : 5
Format                                   : ASS
Codec ID                                 : S_TEXT/ASS
Codec ID/Info                            : Advanced Sub Station Alpha
Duration                                 : 23 min 38 s
Bit rate                                 : 129 b/s
Count of elements                        : 421
Compression mode                         : Lossless
Stream size                              : 22.5 KiB (0%)
Title                                    : Sub Portuguese by Galumis
Language                                 : Portuguese
Default                                  : Yes
Forced                                   : No

Menu
00:00:00.000                             : en:Prologue
00:02:36.000                             : en:Opening
00:04:00.000                             : en:Episode
00:22:14.000                             : en:Ending
00:23:32.000                             : en:Preview
beta
Anime DDL+NZB mirror
Current Time: 06/07/2022 12:27



About/FAQs

Discord