(shiteater) Dr. Slump & Arale-chan 063 [3069C48F].mkv


File Size295.3 MB (309,666,272 bytes)
DownloadClickNUpload | Go4Up
  • Ezfile
  • FileFactory
  • FilePup
  • MegaShares
  • Nitroflare
  • NowDownload
  • Oboom
  • OpenLoad
  • Rapidgator
  • Share-Online
  • ToutBox
  • Uplea
  • Uploadable
  • Uppit
  • UsersCloud
| Jheberg | MultiUp
  • ClickNupload
  • Fichier
  • Filerio
  • Free
  • Fufox
  • HugeFiles
  • Mightyupload
  • ToutBox
  • Turbobit
  • UpToBox
  • Uplea
  • UploadBaz
  • Uploadable
  • Uploaded
  • Uppit
  • Userscloud
| OpenLoad | Sendspace | SolidFiles
HashesCRC32: 3069C48F, MD5: E53EB6DE5455592679B594543644EF9E, SHA1: DDA44619C349F0C640100D35173472A8B7AC62CB, SHA256: 0A2B7603ACD2AE0101B2627F31CD3554F449AA87A2DA2DD20888C3BE2F9FAFB1, ED2K: 866F6C71BEED6660EAC0DDE149DD6AD0
Screenshots
screenshotscreenshotscreenshotscreenshotscreenshot
SubtitlesAll Attachments | eng [ASS]
Additional Info
General
Unique ID                                : 195296171898113145331740001374242579388 (0x92ECACAF32269EFD94FD4D736CF3A3BC)
Complete name                            : (shiteater) Dr. Slump & Arale-chan 063 [3069C48F].mkv
Format                                   : Matroska
Format version                           : Version 4 / Version 2
File size                                : 295 MiB
Duration                                 : 24 min 41 s
Overall bit rate                         : 1 673 kb/s
Encoded date                             : UTC 2017-11-07 01:13:11
Writing application                      : mkvmerge v8.9.0 ('Father Daughter') 64bit
Writing library                          : libebml v1.3.3 + libmatroska v1.4.4
Attachments                              : ARLRDBD_0.TTF / digistrip_0.ttf / trebucbd_0.ttf / trebucbi_0.ttf / VINERITC_0.TTF / GILSANUB_0.TTF / KBPayTheLady_0.ttf / Little_Things_0.ttf / My Imaginary Friend_0.ttf / turds_0.ttf / GROBOLD Medium_0.ttf / futura-hv-bt-heavy_0.ttf / VINERITC_0.TTF / verdanaz_0.ttf / BERLIN SANS FB DEMI BOLD_0.TTF

Video
ID                                       : 1
Format                                   : AVC
Format/Info                              : Advanced Video Codec
Format profile                           : Baseline@L3
Format settings, CABAC                   : No
Format settings, ReFrames                : 6 frames
Codec ID                                 : V_MPEG4/ISO/AVC
Duration                                 : 24 min 41 s
Bit rate                                 : 1 500 kb/s
Width                                    : 640 pixels
Height                                   : 480 pixels
Display aspect ratio                     : 4:3
Frame rate mode                          : Constant
Frame rate                               : 23.976 (24000/1001) FPS
Color space                              : YUV
Chroma subsampling                       : 4:2:0
Bit depth                                : 8 bits
Scan type                                : Progressive
Bits/(Pixel*Frame)                       : 0.204
Stream size                              : 265 MiB (90%)
Writing library                          : x264 core 65 r999kMod cc51047
Encoding settings                        : cabac=0 / ref=6 / deblock=1:-2:-1 / analyse=0x1:0x131 / me=umh / subme=7 / psy_rd=1.0:0.0 / mixed_ref=1 / me_range=16 / chroma_me=1 / trellis=0 / 8x8dct=0 / cqm=0 / deadzone=21,11 / chroma_qp_offset=-2 / threads=4 / thread_queue=4 / nr=0 / decimate=0 / mbaff=0 / bframes=0 / keyint=250 / keyint_min=25 / scenecut=40(pre) / rc=2pass / bitrate=1500 / ratetol=1.0 / qcomp=0.60 / qpmin=10 / qpmax=51 / qpstep=4 / cplxblur=20.0 / qblur=0.5 / ip_ratio=1.40 / aq=1:1.00
Language                                 : Japanese
Default                                  : Yes
Forced                                   : No

Audio
ID                                       : 2
Format                                   : AAC
Format/Info                              : Advanced Audio Codec
Format profile                           : LC
Codec ID                                 : A_AAC
Duration                                 : 24 min 41 s
Bit rate                                 : 164 kb/s
Channel(s)                               : 2 channels
Channel positions                        : Front: L R
Sampling rate                            : 48.0 kHz
Frame rate                               : 46.875 FPS (1024 spf)
Compression mode                         : Lossy
Stream size                              : 29.0 MiB (10%)
Language                                 : Japanese
Default                                  : Yes
Forced                                   : No

Text
ID                                       : 3
Format                                   : ASS
Codec ID                                 : S_TEXT/ASS
Codec ID/Info                            : Advanced Sub Station Alpha
Duration                                 : 24 min 30 s
Bit rate                                 : 163 b/s
Count of elements                        : 497
Compression mode                         : Lossless
Stream size                              : 29.4 KiB (0%)
Language                                 : English
Default                                  : Yes
Forced                                   : No

Menu
00:00:00.000                             : ja:OP - WaiWai World
00:01:13.920                             : ja:Part A
00:10:59.470                             : ja:Part B
00:22:55.600                             : ja:next episode preview
00:23:25.630                             : ja:ED - The Arale-chan Dance
beta
Anime DDL+NZB mirror
Current Time: 24/11/2017 20:33



About/FAQs