File Size156.3 MB (163,870,935 bytes)
DownloadBayFiles | FlameUpload | JumboFiles | UploadedTo
HashesCRC32: 3FD55FAF, MD5: 86BAA2A25BD3F42896DAC6FBA509F05C, SHA1: 5D50735E16BDCBF858FB56D748D8D0386FF0D40D, SHA256: B29CDCA8932FEAEAF719055720EDFE20C18766F718200716AA127DAD62AA6153, ED2K: 9703E0F7667FB7756C537DFDA58E8FFB
Screenshots
screenshotscreenshotscreenshotscreenshotscreenshot
Additional Info
General
Complete name                            : [ShinBunBu-Hadena] Acchi Kocchi - 08 [480p][3FD55FAF].mp4
Format                                   : MPEG-4
Format profile                           : Base Media
Codec ID                                 : isom
File size                                : 156 MiB
Duration                                 : 24mn 29s
Overall bit rate mode                    : Variable
Overall bit rate                         : 892 Kbps
Encoded date                             : UTC 2012-05-27 14:40:41
Tagged date                              : UTC 2012-05-27 14:40:41
Writing application                      : My MP4Box GUI 0.5.6.0 <http://my-mp4box-gui.zymichost.com>

Video
ID                                       : 1
Format                                   : AVC
Format/Info                              : Advanced Video Codec
Format profile                           : High@L3.1
Format settings, CABAC                   : Yes
Format settings, ReFrames                : 6 frames
Codec ID                                 : avc1
Codec ID/Info                            : Advanced Video Coding
Duration                                 : 24mn 19s
Bit rate                                 : 680 Kbps
Maximum bit rate                         : 3 245 Kbps
Width                                    : 848 pixels
Height                                   : 480 pixels
Display aspect ratio                     : 16:9
Frame rate mode                          : Constant
Frame rate                               : 23.976 fps
Color space                              : YUV
Chroma subsampling                       : 4:2:0
Bit depth                                : 8 bits
Scan type                                : Progressive
Bits/(Pixel*Frame)                       : 0.070
Stream size                              : 118 MiB (76%)
Writing library                          : x264 core 125 r2200+677M 3a754e7
Encoding settings                        : cabac=1 / ref=6 / deblock=1:1:1 / analyse=0x3:0x113 / me=hex / subme=7 / psy=1 / fade_compensate=0.40 / psy_rd=0.40:0.00 / mixed_ref=1 / me_range=16 / chroma_me=1 / trellis=1 / 8x8dct=1 / cqm=0 / deadzone=21,11 / fast_pskip=0 / chroma_qp_offset=-2 / threads=12 / lookahead_threads=2 / sliced_threads=0 / nr=0 / decimate=1 / interlaced=0 / bluray_compat=0 / constrained_intra=0 / fgo=5 / bframes=5 / b_pyramid=2 / b_adapt=1 / b_bias=0 / direct=1 / weightb=1 / open_gop=0 / weightp=2 / keyint=250 / keyint_min=23 / scenecut=40 / intra_refresh=0 / rc_lookahead=40 / rc=crf / mbtree=1 / crf=22.0000 / qcomp=0.60 / qpmin=0 / qpmax=69 / qpstep=4 / ip_ratio=1.40 / aq=1:0.60
Encoded date                             : UTC 2012-05-28 14:37:25
Tagged date                              : UTC 2012-05-27 14:40:42
Matrix coefficients                      : BT.709-5, BT.1361, IEC 61966-2-4 709, SMPTE RP177

Audio
ID                                       : 2
Format                                   : AAC
Format/Info                              : Advanced Audio Codec
Format profile                           : LC
Codec ID                                 : 40
Duration                                 : 24mn 29s
Bit rate mode                            : Variable
Bit rate                                 : 213 Kbps
Maximum bit rate                         : 267 Kbps
Channel(s)                               : 2 channels
Channel positions                        : Front: L R
Sampling rate                            : 48.0 KHz
Compression mode                         : Lossy
Delay relative to video                  : -3s 337ms
Stream size                              : 37.4 MiB (24%)
Title                                    : Imported with GPAC 0.4.6-DEV (internal rev. 5)
Encoded date                             : UTC 2012-05-27 14:40:41
Tagged date                              : UTC 2012-05-27 14:40:42
beta
Anime DDL+NZB mirror
Current Time: 27/07/2021 00:09



About/FAQs