File Size1.062 GB (1,140,147,890 bytes)
DownloadClickNUpload | DropAPK
Free: Part1, Part2
MultiUp: Part1
  • BdUpload
  • DownAce
  • Fichier
  • FileCloud
  • Filerio
  • FilesCdn
  • IndiShare
  • Kbagi
  • Turbobit
  • UpToBox
  • Uppit
, Part2
  • BdUpload
  • DownAce
  • Fichier
  • FileCloud
  • Filerio
  • FilesCdn
  • IndiShare
  • Kbagi
  • Turbobit
  • UpToBox
  • Uppit
, Part3
  • BdUpload
  • DownAce
  • Fichier
  • FileCloud
  • Filerio
  • FilesCdn
  • IndiShare
  • Kbagi
  • Turbobit
  • UpToBox
  • Uppit

SolidFiles: Part1, Part2, Part3
ZippyShare: Part1, Part2, Part3
HashesCRC32: 60ACB8CA, MD5: C64CDD40B74A9C37E56B4D2C0A17A9D5, SHA1: 8D47A52E2CE36859152FCAA710CBEC410E7677A1, SHA256: 8DC484ACC2D8091563D7DFC7DA8D38BDD93E97C9EFAA785D173AD6D75D82C171, ED2K: F759BD1216FE223DF132B4B45DBDE3B2
Screenshots
screenshotscreenshotscreenshotscreenshotscreenshot
SubtitlesAll Attachments | und [ASS]
Additional Info
General
Unique ID                                : 183350695473655668861157585076211192976 (0x89F00F39AB022285826E1CECF54C9490)
Complete name                            : [Shangz] Yuukoku no Moriarty - 21.mkv
Format                                   : Matroska
Format version                           : Version 4
File size                                : 1.06 GiB
Duration                                 : 23 min 41 s
Overall bit rate                         : 6 419 kb/s
Movie name                               : Yuukoku no Moriarty - 21 The Sign of Mary
Encoded date                             : UTC 2021-06-10 15:04:55
Writing application                      : mkvmerge v38.0.0 ('The Silent Type') 64-bit
Writing library                          : libebml v1.3.9 + libmatroska v1.5.2
Attachments                              : iskpotab.ttf / calgary-serial-extralight-regular.ttf / GRIFFOSFONT.TTF / Juana Thin.ttf / MinionPro-Bold.otf / MinionPro-Regular.otf / CABIN-BOLD.TTF / CABIN-BOLDITALIC.TTF

Video
ID                                       : 1
Format                                   : AVC
Format/Info                              : Advanced Video Codec
Format profile                           : Main@L4
Format settings                          : CABAC / 4 Ref Frames
Format settings, CABAC                   : Yes
Format settings, ReFrames                : 4 frames
Codec ID                                 : V_MPEG4/ISO/AVC
Duration                                 : 23 min 41 s
Bit rate                                 : 6 152 kb/s
Width                                    : 1 920 pixels
Height                                   : 1 080 pixels
Display aspect ratio                     : 16:9
Frame rate mode                          : Constant
Frame rate                               : 23.976 (24000/1001) FPS
Color space                              : YUV
Chroma subsampling                       : 4:2:0
Bit depth                                : 8 bits
Scan type                                : Progressive
Bits/(Pixel*Frame)                       : 0.124
Stream size                              : 1.02 GiB (96%)
Default                                  : Yes
Forced                                   : No
Color range                              : Limited
Matrix coefficients                      : BT.709

Audio
ID                                       : 2
Format                                   : AAC LC
Format/Info                              : Advanced Audio Codec Low Complexity
Codec ID                                 : A_AAC-2
Duration                                 : 23 min 41 s
Bit rate                                 : 256 kb/s
Channel(s)                               : 2 channels
Channel layout                           : L R
Sampling rate                            : 48.0 kHz
Frame rate                               : 46.875 FPS (1024 SPF)
Compression mode                         : Lossy
Delay relative to video                  : 20 ms
Stream size                              : 43.4 MiB (4%)
Language                                 : Japanese
Default                                  : Yes
Forced                                   : No

Text
ID                                       : 3
Format                                   : ASS
Codec ID                                 : S_TEXT/ASS
Codec ID/Info                            : Advanced Sub Station Alpha
Duration                                 : 23 min 34 s
Bit rate                                 : 149 b/s
Count of elements                        : 383
Compression mode                         : Lossless
Stream size                              : 25.9 KiB (0%)
Default                                  : Yes
Forced                                   : No

Menu
00:00:00.480                             : en:Prologue
00:00:46.020                             : en:OP
00:02:15.990                             : en:Episode
00:21:54.960                             : en:ED
00:23:24.960                             : en:Preview
beta
Anime DDL+NZB mirror
Current Time: 24/09/2021 08:45



About/FAQs