File Size1.061 GB (1,139,400,942 bytes)
DownloadClickNUpload | DropAPK
Free: Part1, Part2
MultiUp: Part1
  • BdUpload
  • DownAce
  • Fichier
  • FileCloud
  • Filerio
  • FilesCdn
  • IndiShare
  • Kbagi
  • Turbobit
  • UpToBox
  • Uppit
, Part2
  • BdUpload
  • DownAce
  • Fichier
  • FileCloud
  • Filerio
  • FilesCdn
  • IndiShare
  • Kbagi
  • Turbobit
  • UpToBox
  • Uppit
, Part3
  • BdUpload
  • DownAce
  • Fichier
  • FileCloud
  • Filerio
  • FilesCdn
  • IndiShare
  • Kbagi
  • Turbobit
  • UpToBox
  • Uppit

SolidFiles: Part1, Part2, Part3
ZippyShare: Part1, Part2, Part3
HashesCRC32: 02842947, MD5: 75A547E813E2B75A1BA50D1B1C815635, SHA1: BA7419CA65B74D439899F984DD257E9E4103C932, SHA256: 2734FA1573E002847E49E0D0A247256A8DBCA95CD190D9265477F480581B4827, ED2K: C8238B8C1B32AB24DAAA7F7BE31FA1E5
Screenshots
screenshotscreenshotscreenshotscreenshotscreenshot
SubtitlesAll Attachments | und [ASS]
Additional Info
General
Unique ID                                : 210708395887747564375318030216660925389 (0x9E84F5FEAECCE34A79F7FF8A1AE63BCD)
Complete name                            : [Shangz] Yuukoku no Moriarty - 20 [v0].mkv
Format                                   : Matroska
Format version                           : Version 4
File size                                : 1.06 GiB
Duration                                 : 23 min 41 s
Overall bit rate                         : 6 414 kb/s
Movie name                               : Yuukoku no Moriarty - 20 The Sign of Mary
Encoded date                             : UTC 2021-06-02 14:01:44
Writing application                      : mkvmerge v38.0.0 ('The Silent Type') 64-bit
Writing library                          : libebml v1.3.9 + libmatroska v1.5.2
Attachments                              : calgary-serial-extralight-regular.ttf / GRIFFOSFONT.TTF / Juana Thin.ttf / MinionPro-Bold.otf / MinionPro-Regular.otf / CABIN-BOLD.TTF / CABIN-BOLDITALIC.TTF

Video
ID                                       : 1
Format                                   : AVC
Format/Info                              : Advanced Video Codec
Format profile                           : Main@L4
Format settings                          : CABAC / 4 Ref Frames
Format settings, CABAC                   : Yes
Format settings, ReFrames                : 4 frames
Format settings, GOP                     : M=3, N=48
Codec ID                                 : V_MPEG4/ISO/AVC
Duration                                 : 23 min 41 s
Bit rate                                 : 6 149 kb/s
Width                                    : 1 920 pixels
Height                                   : 1 080 pixels
Display aspect ratio                     : 16:9
Frame rate mode                          : Constant
Frame rate                               : 23.976 (24000/1001) FPS
Color space                              : YUV
Chroma subsampling                       : 4:2:0
Bit depth                                : 8 bits
Scan type                                : Progressive
Bits/(Pixel*Frame)                       : 0.124
Stream size                              : 1.02 GiB (96%)
Default                                  : Yes
Forced                                   : No
Color range                              : Limited
Matrix coefficients                      : BT.709

Audio
ID                                       : 2
Format                                   : AAC LC
Format/Info                              : Advanced Audio Codec Low Complexity
Codec ID                                 : A_AAC-2
Duration                                 : 23 min 41 s
Bit rate                                 : 256 kb/s
Channel(s)                               : 2 channels
Channel layout                           : L R
Sampling rate                            : 48.0 kHz
Frame rate                               : 46.875 FPS (1024 SPF)
Compression mode                         : Lossy
Delay relative to video                  : 20 ms
Stream size                              : 43.4 MiB (4%)
Language                                 : Japanese
Default                                  : Yes
Forced                                   : No

Text
ID                                       : 3
Format                                   : ASS
Codec ID                                 : S_TEXT/ASS
Codec ID/Info                            : Advanced Sub Station Alpha
Duration                                 : 23 min 35 s
Bit rate                                 : 110 b/s
Count of elements                        : 305
Compression mode                         : Lossless
Stream size                              : 19.2 KiB (0%)
Default                                  : Yes
Forced                                   : No

Menu
00:00:00.480                             : en:Prologue
00:00:40.010                             : en:OP
00:02:09.980                             : en:Episode
00:21:55.000                             : en:ED
00:23:25.000                             : en:Preview
beta
Anime DDL+NZB mirror
Current Time: 02/12/2021 10:07



About/FAQs

Discord