File Size231.8 MB (243,007,488 bytes)
DownloadAnonFiles | ClickNUpload | DropAPK | Free | MultiUp
  • BdUpload
  • DownAce
  • Fichier
  • FileCloud
  • Filerio
  • FilesCdn
  • IndiShare
  • Kbagi
  • Turbobit
  • UpToBox
  • Uppit
| Sendspace | SolidFiles | ZippyShare
HashesCRC32: 6A2ACE23, MD5: 74D3D45A4A3F9BF50B969438378C6347, SHA1: E650FB5BF8E165FDD411DEB7F8A5FEF3DE345C8E, SHA256: 44FEF713609CA2DE18984EFE61F869CB49EA6B17031CD4F3582A5CB2D51F6AE4, ED2K: 818536F0CD3EFB796B830BD53AFA8851
Screenshots
screenshotscreenshotscreenshotscreenshotscreenshot
Additional Info
General
Complete name                            : Shadowverse - 21 [720p].mp4
Format                                   : MPEG-4
Format profile                           : Base Media / Version 2
Codec ID                                 : mp42 (isom/iso2/mp41)
File size                                : 232 MiB
Duration                                 : 23 min 54 s
Overall bit rate                         : 1 356 kb/s
Encoded date                             : UTC 2020-09-01 10:27:37
Tagged date                              : UTC 2020-09-01 10:27:37
Writing application                      : HandBrake 20200806172008-58f415251-master 2020080701
IsTruncated                              : Yes

Video
ID                                       : 1
Format                                   : HEVC
Format/Info                              : High Efficiency Video Coding
Format profile                           : Main@L3.1@Main
Codec ID                                 : hvc1
Codec ID/Info                            : High Efficiency Video Coding
Duration                                 : 23 min 54 s
Bit rate                                 : 1 190 kb/s
Width                                    : 1 280 pixels
Height                                   : 720 pixels
Display aspect ratio                     : 16:9
Frame rate mode                          : Variable
Frame rate                               : 23.976 (24000/1001) FPS
Minimum frame rate                       : 23.974 FPS
Maximum frame rate                       : 23.981 FPS
Color space                              : YUV
Chroma subsampling                       : 4:2:0
Bit depth                                : 8 bits
Bits/(Pixel*Frame)                       : 0.054
Stream size                              : 203 MiB (88%)
Encoded date                             : UTC 2020-09-01 10:27:37
Tagged date                              : UTC 2020-09-01 10:27:37
Color range                              : Limited
Color primaries                          : BT.709
Transfer characteristics                 : BT.709
Matrix coefficients                      : BT.709
Codec configuration box                  : hvcC

Audio
ID                                       : 2
Format                                   : AAC LC
Format/Info                              : Advanced Audio Codec Low Complexity
Codec ID                                 : mp4a-40-2
Duration                                 : 23 min 54 s
Bit rate mode                            : Constant
Bit rate                                 : 160 kb/s
Channel(s)                               : 2 channels
Channel layout                           : L R
Sampling rate                            : 44.1 kHz
Frame rate                               : 43.066 FPS (1024 SPF)
Compression mode                         : Lossy
Stream size                              : 27.4 MiB (12%)
Title                                    : Stereo
Language                                 : Japanese
Default                                  : Yes
Alternate group                          : 1
Encoded date                             : UTC 2020-09-01 10:27:37
Tagged date                              : UTC 2020-09-01 10:27:37
beta
Anime DDL+NZB mirror
Current Time: 30/11/2020 08:29



About/FAQs