File Size418.6 MB (438,943,744 bytes)
DownloadAnonFiles | ClickNUpload | DropAPK | Free | MultiUp
  • BdUpload
  • DownAce
  • Fichier
  • FileCloud
  • Filerio
  • FilesCdn
  • IndiShare
  • Kbagi
  • Turbobit
  • UpToBox
  • Uppit
| SolidFiles | ZippyShare
Sendspace: Part1, Part2
HashesCRC32: C37D5BA3, MD5: 6D2DEB2D5FE5A568B178165A230CF6BC, SHA1: 9719AF4BB3C6FCBECB8EDEDAC80D7E007A4DC380, SHA256: FC7F9E95548BA8F8CD95C0B5E2BA38B71D1822D998D4F0285F3052A09CFDB586, ED2K: B66EF4D2402B5916827446D0772C9C1C
Screenshots
screenshotscreenshotscreenshotscreenshotscreenshot
Additional Info
General
Complete name                            : Shadowverse - 21 [1080p].mp4
Format                                   : MPEG-4
Format profile                           : Base Media / Version 2
Codec ID                                 : mp42 (isom/iso2/mp41)
File size                                : 419 MiB
Duration                                 : 23 min 54 s
Overall bit rate                         : 2 449 kb/s
Encoded date                             : UTC 2020-09-01 10:27:37
Tagged date                              : UTC 2020-09-01 10:27:37
Writing application                      : HandBrake 20200806172008-58f415251-master 2020080701
IsTruncated                              : Yes

Video
ID                                       : 1
Format                                   : HEVC
Format/Info                              : High Efficiency Video Coding
Format profile                           : Main@L4@Main
Codec ID                                 : hvc1
Codec ID/Info                            : High Efficiency Video Coding
Duration                                 : 23 min 54 s
Bit rate                                 : 2 286 kb/s
Width                                    : 1 920 pixels
Height                                   : 1 080 pixels
Display aspect ratio                     : 16:9
Frame rate mode                          : Variable
Frame rate                               : 23.976 (24000/1001) FPS
Minimum frame rate                       : 23.974 FPS
Maximum frame rate                       : 23.981 FPS
Color space                              : YUV
Chroma subsampling                       : 4:2:0
Bit depth                                : 8 bits
Bits/(Pixel*Frame)                       : 0.046
Stream size                              : 391 MiB (93%)
Encoded date                             : UTC 2020-09-01 10:27:37
Tagged date                              : UTC 2020-09-01 10:27:37
Color range                              : Limited
Color primaries                          : BT.709
Transfer characteristics                 : BT.709
Matrix coefficients                      : BT.709
Codec configuration box                  : hvcC

Audio
ID                                       : 2
Format                                   : AAC LC
Format/Info                              : Advanced Audio Codec Low Complexity
Codec ID                                 : mp4a-40-2
Duration                                 : 23 min 54 s
Bit rate mode                            : Constant
Bit rate                                 : 160 kb/s
Channel(s)                               : 2 channels
Channel layout                           : L R
Sampling rate                            : 44.1 kHz
Frame rate                               : 43.066 FPS (1024 SPF)
Compression mode                         : Lossy
Stream size                              : 27.4 MiB (7%)
Title                                    : Stereo
Language                                 : Japanese
Default                                  : Yes
Alternate group                          : 1
Encoded date                             : UTC 2020-09-01 10:27:37
Tagged date                              : UTC 2020-09-01 10:27:37
beta
Anime DDL+NZB mirror
Current Time: 30/11/2020 07:25



About/FAQs