File Size224.8 MB (235,732,992 bytes)
DownloadAnonFiles | ClickNUpload | DropAPK | Free | MultiUp
  • BdUpload
  • DownAce
  • Fichier
  • FileCloud
  • Filerio
  • FilesCdn
  • IndiShare
  • Kbagi
  • Turbobit
  • UpToBox
  • Uppit
| Sendspace | SolidFiles | ZippyShare
HashesCRC32: 1BB27279, MD5: BA04A6B38B0C67B98575CC624CD8101E, SHA1: 39AC8DF6ABE24E153830BFF1B81990A470C1552B, SHA256: A993BF13D3AE72EE70C8404CD93BB82D52568A5CD12CA243AC8FEF1911820F51, ED2K: 4352F6A3A27E59D4FDB83876EF1FE76F
Screenshots
screenshotscreenshotscreenshotscreenshotscreenshot
Additional Info
General
Complete name                            : Shadowverse - 20 [720p].mp4
Format                                   : MPEG-4
Format profile                           : Base Media / Version 2
Codec ID                                 : mp42 (isom/iso2/mp41)
File size                                : 225 MiB
Duration                                 : 23 min 53 s
Overall bit rate                         : 1 315 kb/s
Encoded date                             : UTC 2020-08-25 10:28:37
Tagged date                              : UTC 2020-08-25 10:28:37
Writing application                      : HandBrake 20200806172008-58f415251-master 2020080701
IsTruncated                              : Yes

Video
ID                                       : 1
Format                                   : HEVC
Format/Info                              : High Efficiency Video Coding
Format profile                           : Main@L3.1@Main
Codec ID                                 : hvc1
Codec ID/Info                            : High Efficiency Video Coding
Duration                                 : 23 min 53 s
Bit rate                                 : 1 198 kb/s
Width                                    : 1 280 pixels
Height                                   : 720 pixels
Display aspect ratio                     : 16:9
Frame rate mode                          : Variable
Frame rate                               : 23.976 (24000/1001) FPS
Minimum frame rate                       : 23.974 FPS
Maximum frame rate                       : 23.981 FPS
Color space                              : YUV
Chroma subsampling                       : 4:2:0
Bit depth                                : 8 bits
Bits/(Pixel*Frame)                       : 0.054
Stream size                              : 205 MiB (91%)
Encoded date                             : UTC 2020-08-25 10:28:37
Tagged date                              : UTC 2020-08-25 10:28:37
Color range                              : Limited
Color primaries                          : BT.709
Transfer characteristics                 : BT.709
Matrix coefficients                      : BT.709
Codec configuration box                  : hvcC

Audio
ID                                       : 2
Format                                   : AAC LC
Format/Info                              : Advanced Audio Codec Low Complexity
Codec ID                                 : mp4a-40-2
Duration                                 : 23 min 53 s
Bit rate mode                            : Constant
Bit rate                                 : 112 kb/s
Channel(s)                               : 2 channels
Channel layout                           : L R
Sampling rate                            : 44.1 kHz
Frame rate                               : 43.066 FPS (1024 SPF)
Compression mode                         : Lossy
Stream size                              : 19.2 MiB (9%)
Title                                    : Stereo
Language                                 : Japanese
Default                                  : Yes
Alternate group                          : 1
Encoded date                             : UTC 2020-08-25 10:28:37
Tagged date                              : UTC 2020-08-25 10:28:37
beta
Anime DDL+NZB mirror
Current Time: 30/11/2020 07:07



About/FAQs