File Size413.4 MB (433,487,872 bytes)
DownloadAnonFiles | ClickNUpload | DropAPK | Free | MultiUp
  • BdUpload
  • DownAce
  • Fichier
  • FileCloud
  • Filerio
  • FilesCdn
  • IndiShare
  • Kbagi
  • Turbobit
  • UpToBox
  • Uppit
| SolidFiles | ZippyShare
Sendspace: Part1, Part2
HashesCRC32: A93A7411, MD5: 4EAE6D4D6A19C02ED85179B4D714A73B, SHA1: 5AE930F44B8F9B07CFE777BF3A7F9B87328B0A72, SHA256: BF6CED512D66FEA3369DDFA89E62271A8D4C0DDD69094F9E13C7A7314406EC61, ED2K: 8DBEFD0CD2DDA39CA7E56D93705D51AC
Screenshots
screenshotscreenshotscreenshotscreenshotscreenshot
Additional Info
General
Complete name                            : Shadowverse - 20 [1080p].mp4
Format                                   : MPEG-4
Format profile                           : Base Media / Version 2
Codec ID                                 : mp42 (isom/iso2/mp41)
File size                                : 413 MiB
Duration                                 : 23 min 53 s
Overall bit rate                         : 2 418 kb/s
Encoded date                             : UTC 2020-08-25 10:28:37
Tagged date                              : UTC 2020-08-25 10:28:37
Writing application                      : HandBrake 20200806172008-58f415251-master 2020080701
IsTruncated                              : Yes

Video
ID                                       : 1
Format                                   : HEVC
Format/Info                              : High Efficiency Video Coding
Format profile                           : Main@L4@Main
Codec ID                                 : hvc1
Codec ID/Info                            : High Efficiency Video Coding
Duration                                 : 23 min 53 s
Bit rate                                 : 2 302 kb/s
Width                                    : 1 920 pixels
Height                                   : 1 080 pixels
Display aspect ratio                     : 16:9
Frame rate mode                          : Variable
Frame rate                               : 23.976 (24000/1001) FPS
Minimum frame rate                       : 23.974 FPS
Maximum frame rate                       : 23.981 FPS
Color space                              : YUV
Chroma subsampling                       : 4:2:0
Bit depth                                : 8 bits
Bits/(Pixel*Frame)                       : 0.046
Stream size                              : 394 MiB (95%)
Encoded date                             : UTC 2020-08-25 10:28:37
Tagged date                              : UTC 2020-08-25 10:28:37
Color range                              : Limited
Color primaries                          : BT.709
Transfer characteristics                 : BT.709
Matrix coefficients                      : BT.709
Codec configuration box                  : hvcC

Audio
ID                                       : 2
Format                                   : AAC LC
Format/Info                              : Advanced Audio Codec Low Complexity
Codec ID                                 : mp4a-40-2
Duration                                 : 23 min 53 s
Bit rate mode                            : Constant
Bit rate                                 : 112 kb/s
Channel(s)                               : 2 channels
Channel layout                           : L R
Sampling rate                            : 44.1 kHz
Frame rate                               : 43.066 FPS (1024 SPF)
Compression mode                         : Lossy
Stream size                              : 19.2 MiB (5%)
Title                                    : Stereo
Language                                 : Japanese
Default                                  : Yes
Alternate group                          : 1
Encoded date                             : UTC 2020-08-25 10:28:37
Tagged date                              : UTC 2020-08-25 10:28:37
beta
Anime DDL+NZB mirror
Current Time: 30/11/2020 07:03



About/FAQs