File Size317.6 MB (333,056,731 bytes)
DownloadAnonFiles | ClickNUpload | DropAPK | Free | MultiUp
  • BdUpload
  • DownAce
  • Fichier
  • FileCloud
  • Filerio
  • FilesCdn
  • IndiShare
  • Kbagi
  • Turbobit
  • UpToBox
  • Uppit
| SolidFiles | ZippyShare
Sendspace: Part1, Part2
HashesCRC32: 83FACA9D, MD5: 0950C5D7BEDA2655CB7FCDEACF75A2A4, SHA1: BE10747703A3B8746E7484A7445D69660789DEB6, SHA256: 397FB166D26E45AFEE769ECDE8E1DB8A40651049852BB3230080DD13F466D1D1, ED2K: 53024EFE884482512FE5AA3F4211F0BB
Screenshots
screenshotscreenshotscreenshotscreenshotscreenshot
Additional Info
General
Complete name                            : Shadowverse - 19 [720p].mp4
Format                                   : MPEG-4
Format profile                           : Base Media / Version 2
Codec ID                                 : mp42 (isom/iso2/mp41)
File size                                : 318 MiB
Duration                                 : 23 min 54 s
Overall bit rate                         : 1 858 kb/s
Encoded date                             : UTC 2020-08-18 11:09:17
Tagged date                              : UTC 2020-08-18 11:09:17
Writing application                      : HandBrake 20200806172008-58f415251-master 2020080701

Video
ID                                       : 1
Format                                   : HEVC
Format/Info                              : High Efficiency Video Coding
Format profile                           : Main@L3.1@Main
Codec ID                                 : hvc1
Codec ID/Info                            : High Efficiency Video Coding
Duration                                 : 23 min 54 s
Bit rate                                 : 1 476 kb/s
Width                                    : 1 280 pixels
Height                                   : 720 pixels
Display aspect ratio                     : 16:9
Frame rate mode                          : Variable
Frame rate                               : 23.976 (24000/1001) FPS
Minimum frame rate                       : 23.974 FPS
Maximum frame rate                       : 23.981 FPS
Color space                              : YUV
Chroma subsampling                       : 4:2:0
Bit depth                                : 8 bits
Bits/(Pixel*Frame)                       : 0.067
Stream size                              : 252 MiB (79%)
Encoded date                             : UTC 2020-08-18 11:09:17
Tagged date                              : UTC 2020-08-18 11:09:17
Color range                              : Limited
Color primaries                          : BT.709
Transfer characteristics                 : BT.709
Matrix coefficients                      : BT.709
Codec configuration box                  : hvcC

Audio
ID                                       : 2
Format                                   : AAC LC
Format/Info                              : Advanced Audio Codec Low Complexity
Codec ID                                 : mp4a-40-2
Duration                                 : 23 min 54 s
Bit rate mode                            : Constant
Bit rate                                 : 384 kb/s
Channel(s)                               : 2 channels
Channel layout                           : L R
Sampling rate                            : 44.1 kHz
Frame rate                               : 43.066 FPS (1024 SPF)
Compression mode                         : Lossy
Stream size                              : 64.4 MiB (20%)
Title                                    : Stereo
Language                                 : Japanese
Default                                  : Yes
Alternate group                          : 1
Encoded date                             : UTC 2020-08-18 11:09:17
Tagged date                              : UTC 2020-08-18 11:09:17
beta
Anime DDL+NZB mirror
Current Time: 30/11/2020 07:33



About/FAQs