File Size392.9 MB (412,005,760 bytes)
DownloadAnonFiles | ClickNUpload | DropAPK | Free | MultiUp
  • BdUpload
  • DownAce
  • Fichier
  • FileCloud
  • Filerio
  • FilesCdn
  • IndiShare
  • Kbagi
  • Turbobit
  • UpToBox
  • Uppit
| SolidFiles | ZippyShare
Sendspace: Part1, Part2
HashesCRC32: 5E970115, MD5: 1800602F45391FD2088594329A2C927C, SHA1: 0BD7E851831D3E6637136D17F8FF99D3885C5DD4, SHA256: 0D977B31ADF26C7FB824C4C33DC60E577955C58F35AF8C67A7BA34AFCBF7751E, ED2K: CE11B125937D07104C270C06FA9506F4
Screenshots
screenshotscreenshotscreenshotscreenshotscreenshot
Additional Info
General
Complete name                            : Shadowverse - 18 [1080P].mp4
Format                                   : MPEG-4
Format profile                           : Base Media / Version 2
Codec ID                                 : mp42 (isom/iso2/mp41)
File size                                : 393 MiB
Duration                                 : 23 min 54 s
Overall bit rate                         : 2 298 kb/s
Encoded date                             : UTC 2020-08-11 11:22:02
Tagged date                              : UTC 2020-08-11 11:22:02
Writing application                      : HandBrake 20200804121537-7388225bc-master 2020080401

Video
ID                                       : 1
Format                                   : HEVC
Format/Info                              : High Efficiency Video Coding
Format profile                           : Main@L6.2@Main
Codec ID                                 : hvc1
Codec ID/Info                            : High Efficiency Video Coding
Duration                                 : 23 min 53 s
Bit rate                                 : 1 924 kb/s
Width                                    : 1 920 pixels
Height                                   : 1 080 pixels
Display aspect ratio                     : 16:9
Frame rate mode                          : Variable
Frame rate                               : 23.976 (24000/1001) FPS
Minimum frame rate                       : 23.974 FPS
Maximum frame rate                       : 23.981 FPS
Standard                                 : Component
Color space                              : YUV
Chroma subsampling                       : 4:2:0
Bit depth                                : 8 bits
Bits/(Pixel*Frame)                       : 0.039
Stream size                              : 329 MiB (84%)
Encoded date                             : UTC 2020-08-11 11:22:02
Tagged date                              : UTC 2020-08-11 11:22:02
Color range                              : Limited
Codec configuration box                  : hvcC

Audio
ID                                       : 2
Format                                   : AAC LC
Format/Info                              : Advanced Audio Codec Low Complexity
Codec ID                                 : mp4a-40-2
Duration                                 : 23 min 54 s
Bit rate mode                            : Constant
Bit rate                                 : 370 kb/s
Channel(s)                               : 2 channels
Channel layout                           : L R
Sampling rate                            : 44.1 kHz
Frame rate                               : 43.066 FPS (1024 SPF)
Compression mode                         : Lossy
Stream size                              : 63.2 MiB (16%)
Title                                    : Stereo
Language                                 : Japanese
Default                                  : Yes
Alternate group                          : 1
Encoded date                             : UTC 2020-08-11 11:22:02
Tagged date                              : UTC 2020-08-11 11:22:02
beta
Anime DDL+NZB mirror
Current Time: 30/11/2020 08:40



About/FAQs