File Size493.1 MB (517,100,222 bytes)
DownloadClickNUpload | DownloadGG | KrakenFiles | MultiUp
  • BdUpload
  • DownAce
  • Fichier
  • FileCloud
  • Filerio
  • FilesCdn
  • IndiShare
  • Kbagi
  • Turbobit
  • UpToBox
  • Uppit
| ZippyShare
HashesCRC32: 1B760B12, MD5: 75D28355D40E6BC75F8D95E7D2781752, SHA1: 43C5A0A48D17EAC9616D18403ADA64251369709F, SHA256: 6E8CFAFA13878A729BAC4FF9F7AF92433E55E6BB58F51B4A64B2B2BCF4310C02, ED2K: 47039AF7E140FCE7B90CDBD3DD3E1FDE
Screenshots
screenshotscreenshotscreenshotscreenshotscreenshot
SubtitlesAll Attachments | eng [ASS]
Additional Info
General
Unique ID                                : 26476872043042303213654968608656650854 (0x13EB4293F4EBDD9E62349880E196F266)
Complete name                            : [Scorpius-Subs] SF Saiyuki Starzinger - 23 [1B760B12].mkv
Format                                   : Matroska
Format version                           : Version 4
File size                                : 493 MiB
Duration                                 : 25 min 34 s
Overall bit rate mode                    : Variable
Overall bit rate                         : 2 696 kb/s
Encoded date                             : UTC 2022-06-18 21:15:27
Writing application                      : mkvmerge v68.0.0 ('The Curtain') 64-bit
Writing library                          : libebml v1.4.2 + libmatroska v1.6.4
Attachments                              : Roboto-Medium.ttf

Video
ID                                       : 1
Format                                   : AVC
Format/Info                              : Advanced Video Codec
Format profile                           : High@L4.1
Format settings                          : CABAC / 3 Ref Frames
Format settings, CABAC                   : Yes
Format settings, Reference frames        : 3 frames
Codec ID                                 : V_MPEG4/ISO/AVC
Duration                                 : 25 min 34 s
Bit rate mode                            : Variable
Bit rate                                 : 2 258 kb/s
Maximum bit rate                         : 14.0 Mb/s
Width                                    : 1 024 pixels
Height                                   : 768 pixels
Display aspect ratio                     : 4:3
Frame rate mode                          : Constant
Frame rate                               : 23.976 (24000/1001) FPS
Color space                              : YUV
Chroma subsampling                       : 4:2:0
Bit depth                                : 8 bits
Scan type                                : Progressive
Bits/(Pixel*Frame)                       : 0.120
Stream size                              : 413 MiB (84%)
Writing library                          : x264 core 80 r1376M 3feaec2
Encoding settings                        : cabac=1 / ref=4 / deblock=1:0:0 / analyse=0x3:0x113 / me=hex / subme=7 / psy=1 / psy_rd=1.0:0.0 / mixed_ref=1 / me_range=16 / chroma_me=1 / trellis=1 / 8x8dct=1 / cqm=0 / deadzone=21,11 / fast_pskip=1 / chroma_qp_offset=-2 / threads=6 / sliced_threads=0 / slices=4 / nr=0 / decimate=1 / mbaff=0 / constrained_intra=0 / bframes=3 / b_pyramid=1 / b_adapt=1 / b_bias=0 / direct=1 / wpredb=1 / wpredp=2 / keyint=24 / keyint_min=2 / scenecut=40 / rc_lookahead=24 / rc=crf / mbtree=1 / crf=22.0 / qcomp=0.60 / qpmin=10 / qpmax=51 / qpstep=4 / vbv_maxrate=14000 / vbv_bufsize=14500 / ip_ratio=1.40 / aq=1:1.00
Default                                  : Yes
Forced                                   : No

Audio
ID                                       : 2
Format                                   : AC-3
Format/Info                              : Audio Coding 3
Commercial name                          : Dolby Digital
Codec ID                                 : A_AC3
Duration                                 : 25 min 34 s
Bit rate mode                            : Constant
Bit rate                                 : 384 kb/s
Channel(s)                               : 2 channels
Channel layout                           : L R
Sampling rate                            : 48.0 kHz
Frame rate                               : 31.250 FPS (1536 SPF)
Compression mode                         : Lossy
Stream size                              : 70.2 MiB (14%)
Language                                 : Japanese
Service kind                             : Complete Main
Default                                  : Yes
Forced                                   : No

Text
ID                                       : 3
Format                                   : ASS
Codec ID                                 : S_TEXT/ASS
Codec ID/Info                            : Advanced Sub Station Alpha
Compression mode                         : Lossless
Language                                 : English
Default                                  : Yes
Forced                                   : No

Menu
00:00:00.000                             : :Opening
00:01:10.000                             : :First part
00:12:25.000                             : :Second Part
00:23:52.000                             : :Preview
00:24:22.500                             : :Ending
beta
Anime DDL+NZB mirror
Current Time: 16/04/2024 00:54



About/FAQs

Discord