File Size523.6 MB (548,989,363 bytes)
DownloadClickNUpload | DownloadGG | KrakenFiles
MultiUp: Part1
  • BdUpload
  • DownAce
  • Fichier
  • FileCloud
  • Filerio
  • FilesCdn
  • IndiShare
  • Kbagi
  • Turbobit
  • UpToBox
  • Uppit
, Part2
  • BdUpload
  • DownAce
  • Fichier
  • FileCloud
  • Filerio
  • FilesCdn
  • IndiShare
  • Kbagi
  • Turbobit
  • UpToBox
  • Uppit

ZippyShare: Part1, Part2
HashesCRC32: FD39E44E, MD5: 78195C0CE98A1A744E2618EE43ECD5D0, SHA1: 6CD8456389F5A79A594B901EED210B3F883ACB97, SHA256: 618B740B1C008E3E885368922D77DF199FDC722A1F4D931707C6C72FEC505CCE, ED2K: 1455E6059C15B76D7AC716E3D726BC89
Screenshots
screenshotscreenshotscreenshotscreenshotscreenshot
SubtitlesAll Attachments | eng [SRT]
Additional Info
General
Unique ID                                : 217092458790394727374490269271438906067 (0xA3527C98EDC1A0C67450839C06DFD2D3)
Complete name                            : [Scorpius-Subs] SF Saiyuki Starzinger - 17 [FD39E44E].mkv
Format                                   : Matroska
Format version                           : Version 4
File size                                : 524 MiB
Duration                                 : 25 min 34 s
Overall bit rate mode                    : Variable
Overall bit rate                         : 2 862 kb/s
Encoded date                             : UTC 2022-05-31 00:01:35
Writing application                      : mkvmerge v68.0.0 ('The Curtain') 64-bit
Writing library                          : libebml v1.4.2 + libmatroska v1.6.4

Video
ID                                       : 1
Format                                   : AVC
Format/Info                              : Advanced Video Codec
Format profile                           : High@L4.1
Format settings                          : CABAC / 3 Ref Frames
Format settings, CABAC                   : Yes
Format settings, Reference frames        : 3 frames
Codec ID                                 : V_MPEG4/ISO/AVC
Duration                                 : 25 min 34 s
Bit rate mode                            : Variable
Bit rate                                 : 2 476 kb/s
Maximum bit rate                         : 14.0 Mb/s
Width                                    : 1 024 pixels
Height                                   : 768 pixels
Display aspect ratio                     : 4:3
Frame rate mode                          : Constant
Frame rate                               : 23.976 (23976/1000) FPS
Original frame rate                      : 23.976 (24000/1001) FPS
Color space                              : YUV
Chroma subsampling                       : 4:2:0
Bit depth                                : 8 bits
Scan type                                : Progressive
Bits/(Pixel*Frame)                       : 0.131
Stream size                              : 453 MiB (87%)
Writing library                          : x264 core 80 r1376M 3feaec2
Encoding settings                        : cabac=1 / ref=4 / deblock=1:0:0 / analyse=0x3:0x113 / me=hex / subme=7 / psy=1 / psy_rd=1.0:0.0 / mixed_ref=1 / me_range=16 / chroma_me=1 / trellis=1 / 8x8dct=1 / cqm=0 / deadzone=21,11 / fast_pskip=1 / chroma_qp_offset=-2 / threads=6 / sliced_threads=0 / slices=4 / nr=0 / decimate=1 / mbaff=0 / constrained_intra=0 / bframes=3 / b_pyramid=1 / b_adapt=1 / b_bias=0 / direct=1 / wpredb=1 / wpredp=2 / keyint=24 / keyint_min=2 / scenecut=40 / rc_lookahead=24 / rc=crf / mbtree=1 / crf=22.0 / qcomp=0.60 / qpmin=10 / qpmax=51 / qpstep=4 / vbv_maxrate=14000 / vbv_bufsize=14500 / ip_ratio=1.40 / aq=1:1.00
Default                                  : Yes
Forced                                   : No

Audio
ID                                       : 2
Format                                   : AC-3
Format/Info                              : Audio Coding 3
Commercial name                          : Dolby Digital
Codec ID                                 : A_AC3
Duration                                 : 25 min 34 s
Bit rate mode                            : Constant
Bit rate                                 : 384 kb/s
Channel(s)                               : 2 channels
Channel layout                           : L R
Sampling rate                            : 48.0 kHz
Frame rate                               : 31.250 FPS (1536 SPF)
Compression mode                         : Lossy
Stream size                              : 70.2 MiB (13%)
Service kind                             : Complete Main
Default                                  : Yes
Forced                                   : No

Text
ID                                       : 3
Format                                   : UTF-8
Codec ID                                 : S_TEXT/UTF8
Codec ID/Info                            : UTF-8 Plain Text
Duration                                 : 25 min 24 s
Bit rate                                 : 67 b/s
Count of elements                        : 317
Stream size                              : 12.5 KiB (0%)
Language                                 : English
Default                                  : Yes
Forced                                   : No

Menu
00:00:00.000                             : :Opening
00:01:10.000                             : :First part
00:11:57.000                             : :Second Part
00:23:52.000                             : :Preview
00:24:23.000                             : :Ending
beta
Anime DDL+NZB mirror
Current Time: 22/04/2024 09:40



About/FAQs

Discord