File Size284.8 MB (298,684,103 bytes)
DownloadGo4Up | Jheberg | MultiUp | OpenLoad | Sendspace | SolidFiles | UsersCloud
HashesCRC32: 21D4BFD7, MD5: 21ACD83C0DC0C9FA330F1EAC279EE74E, SHA1: DB23B63A82E2CD2E64553F2E2468FB4704AFC9DC, SHA256: 8BE04CC68CD93A32F54B03D1A5C2BF9D34FC2CF852CA5C69EC8BC4078384E2AE, ED2K: 29D56775A7AE5B819F2A07345C7F0F35
Screenshots
screenshotscreenshotscreenshotscreenshotscreenshot
Additional Info
General
Complete name                            : [Scales] One Punch Man - 12 [21D4BFD7].mp4
Format                                   : MPEG-4
Format profile                           : Base Media / Version 2
Codec ID                                 : mp42 (mp42/mp41/isom/avc1)
File size                                : 285 MiB
Duration                                 : 23 min 59 s
Overall bit rate mode                    : Variable
Overall bit rate                         : 1 659 kb/s
Encoded date                             : UTC 2016-12-25 23:06:36
Tagged date                              : UTC 2016-12-25 23:06:36

Video
ID                                       : 1
Format                                   : AVC
Format/Info                              : Advanced Video Codec
Format profile                           : High@L3.1
Format settings, CABAC                   : Yes
Format settings, ReFrames                : 9 frames
Codec ID                                 : avc1
Codec ID/Info                            : Advanced Video Coding
Duration                                 : 23 min 59 s
Bit rate                                 : 1 467 kb/s
Maximum bit rate                         : 7 483 kb/s
Width                                    : 848 pixels
Height                                   : 480 pixels
Display aspect ratio                     : 16:9
Original display aspect ratio            : 16:9
Frame rate mode                          : Constant
Frame rate                               : 23.976 (24000/1001) FPS
Color space                              : YUV
Chroma subsampling                       : 4:2:0
Bit depth                                : 8 bits
Scan type                                : Progressive
Bits/(Pixel*Frame)                       : 0.150
Stream size                              : 252 MiB (88%)
Writing library                          : x264 core 148
Encoding settings                        : cabac=1 / ref=10 / deblock=1:-1:-1 / analyse=0x3:0x133 / me=umh / subme=10 / psy=1 / fade_compensate=0.65 / psy_rd=0.79:0.00 / mixed_ref=1 / me_range=24 / chroma_me=1 / trellis=2 / 8x8dct=1 / cqm=0 / deadzone=21,11 / fast_pskip=1 / chroma_qp_offset=-2 / threads=1 / lookahead_threads=1 / sliced_threads=0 / nr=0 / decimate=1 / interlaced=0 / bluray_compat=0 / stitchable=1 / constrained_intra=0 / fgo=0 / bframes=3 / b_pyramid=1 / b_adapt=2 / b_bias=0 / direct=3 / weightb=1 / open_gop=0 / weightp=2 / keyint=250 / keyint_min=23 / scenecut=40 / intra_refresh=0 / rc_lookahead=60 / rc=crf / mbtree=1 / crf=17.2500 / qcomp=0.77 / qpmin=0:0:0 / qpmax=69:69:69 / qpstep=4 / vbv_maxrate=9600 / vbv_bufsize=2048 / crf_max=0.0 / nal_hrd=none / filler=0 / ip_ratio=1.40 / wtf=-2.08 / aq=3:0.87 / aq-sensitivity=10.00 / aq-factor=1.00:1.00:1.00 / aq2=0 / aq3=0
Encoded date                             : UTC 2016-12-25 23:06:36
Tagged date                              : UTC 2016-12-25 23:06:36
Color range                              : Limited
Matrix coefficients                      : BT.709

Audio
ID                                       : 2
Format                                   : AAC
Format/Info                              : Advanced Audio Codec
Format profile                           : LC
Codec ID                                 : 40
Duration                                 : 23 min 59 s
Bit rate mode                            : Variable
Bit rate                                 : 192 kb/s
Channel(s)                               : 2 channels
Channel positions                        : Front: L R
Sampling rate                            : 48.0 kHz
Frame rate                               : 46.875 FPS (1024 spf)
Compression mode                         : Lossy
Stream size                              : 32.4 MiB (11%)
Encoded date                             : UTC 2016-12-25 23:06:36
Tagged date                              : UTC 2016-12-25 23:06:36

Menu
00:00:00.033                             : Part A
00:14:00.980                             : Part B
00:21:03.400                             : Ending
00:22:42.790                             : Epilogue
beta
Anime DDL+NZB mirror
Current Time: 02/12/2021 15:26



About/FAQs

Discord