File Size461.8 MB (484,217,860 bytes)
DownloadClickNUpload | DownloadGG | KrakenFiles | MultiUp
  • BdUpload
  • DownAce
  • Fichier
  • FileCloud
  • Filerio
  • FilesCdn
  • IndiShare
  • Kbagi
  • Turbobit
  • UpToBox
  • Uppit
| ZippyShare
HashesCRC32: 30DE9412, MD5: 4D952169C1008DA8EAD1CF4BDD47385C, SHA1: 149C258B2905C63182AFC95FB821E24B7E7C5F9B, SHA256: DE526752FF11FB820D9711E65B12E3BC92D2C0822B94E51B0296BBB15153D1D4, ED2K: E92C8E616862BA099EEC0E54764AE31D
Screenshots
screenshotscreenshotscreenshotscreenshotscreenshot
SubtitlesAll Attachments | [HaOYuN] [eng, ASS], Youku Animation (Restyled) [eng, ASS], [Anixlife] by ExRen [ind, ASS]
Additional Info
General
Unique ID                                : 316055873452971043819223673255426863737 (0xEDC625A6EBA2C93BDF0B46367C453279)
Complete name                            : [SanKyuu] Apotheosis - 009v2 (WEBRip 1080p HEVC AAC) [30DE9412].mkv
Format                                   : Matroska
Format version                           : Version 4
File size                                : 462 MiB
Duration                                 : 14 min 37 s
Overall bit rate                         : 4 414 kb/s
Encoded date                             : UTC 2023-01-24 13:38:59
Writing application                      : mkvmerge v70.0.0 ('Caught A Lite Sneeze') 64-bit
Writing library                          : libebml v1.4.2 + libmatroska v1.6.4
Attachments                              : MaShanZheng-Regular.ttf / Oh No.ttf / OLDENGL.TTF / RAGE.TTF / TCM____.TTF / TEMPSITC.TTF / VINERITC.TTF / VIVALDII.TTF / VNI-BrushMe.ttf / Welcome 2019.ttf / Wolf_in_the_City.ttf / Captain Redemption.ttf / Drippy Message.ttf / HARNGTON.TTF / verdana.ttf / verdanai.ttf / ANTQUABI.TTF / georgiab.ttf / MTCORSVA.TTF / SunnySide.ttf / timesbd.ttf / AA_FOT ComicReggae_Hun.ttf / Anixlife.ttf / exo-2-0.bold.otf / exo-2-0.semi-bold.otf

Video
ID                                       : 1
Format                                   : HEVC
Format/Info                              : High Efficiency Video Coding
Format profile                           : Main 10@L4@Main
Codec ID                                 : V_MPEGH/ISO/HEVC
Duration                                 : 14 min 37 s
Bit rate                                 : 4 120 kb/s
Width                                    : 1 920 pixels
Height                                   : 1 080 pixels
Display aspect ratio                     : 16:9
Frame rate mode                          : Constant
Frame rate                               : 25.000 FPS
Color space                              : YUV
Chroma subsampling                       : 4:2:0
Bit depth                                : 10 bits
Bits/(Pixel*Frame)                       : 0.079
Stream size                              : 431 MiB (93%)
Writing library                          : x265 3.5+97-ga456c6e73+1-g9859a8cb5:[Windows][clang 14.0.0][64 bit] Kyouko 10bit+8bit+12bit
Encoding settings                        : rc=crf / crf=23.0000 / qcomp=0.65 / qpstep=4 / stats-write=0 / stats-read=0 / no-lossless / no-cu-lossless / aq-mode=3 / aq-strength=0.80 / aq-bias-strength=1.20 / cbqpoffs=-2 / crqpoffs=-2 / ipratio=1.40 / pbratio=1.20 / psy-rd=1.60 / psy-rdoq=1.00 / deblock=-1:-1 / ref=4 / limit-refs=3 / limit-modes / bframes=8 / b-adapt=2 / bframe-bias=0 / b-pyramid / b-intra / weightp / weightb / min-keyint=1 / max-keyint=360 / rc-lookahead=25 / gop-lookahead=0 / scenecut=40 / hist-scenecut=0 / radl=0 / max-cu-size=32 / min-cu-size=8 / me=3 / subme=3 / merange=57 / rdoq-level=2 / rd=4 / rdpenalty=0 / dynamic-rd=0.00 / no-rd-refine / ----- / cutree / no-sao / no-rect / no-amp / no-open-gop / wpp / no-pmode / no-pme / no-psnr / no-ssim / nr-intra=0 / nr-inter=0 / no-constrained-intra / no-strong-intra-smoothing / max-tu-size=32 / tu-inter-depth=1 / tu-intra-depth=1 / limit-tu=0 / qg-size=8 / qpmax=69 / qpmin=0 / ----- / cpuid=1111039 / frame-threads=3 / numa-pools=12 / log-level=2 / input-csp=1 / input-res=1920x1080 / interlace=0 / level-idc=0 / high-tier=1 / uhd-bd=0 / no-allow-non-conformance / no-repeat-headers / no-aud / no-hrd / info / hash=0 / no-temporal-layers / lookahead-slices=4 / no-splice / no-intra-refresh / no-ssim-rd / signhide / no-tskip / max-merge=3 / temporal-mvp / no-frame-dup / no-hme / no-analyze-src-pics / no-sao-non-deblock / selective-sao=0 / no-early-skip / rskip / no-fast-intra / no-tskip-fast / no-splitrd-skip / zone-count=0 / no-strict-cbr / no-rc-grain / no-const-vbv / sar=0 / overscan=0 / videoformat=5 / range=0 / colorprim=1 / transfer=1 / colormatrix=1 / chromaloc=0 / display-window=0 / cll=0,0 / min-luma=0 / max-luma=1023 / log2-max-poc-lsb=8 / vui-timing-info / vui-hrd-info / slices=1 / no-opt-qp-pps / no-opt-ref-list-length-pps / no-multi-pass-opt-rps / scenecut-bias=0.05 / hist-threshold=0.03 / no-opt-cu-delta-qp / no-aq-motion / no-hdr10 / no-hdr10-opt / no-dhdr10-opt / no-idr-recovery-sei / analysis-reuse-level=0 / analysis-save-reuse-level=0 / analysis-load-reuse-level=0 / scale-factor=0 / refine-intra=0 / refine-inter=0 / refine-mv=1 / refine-ctu-distortion=0 / no-limit-sao / ctu-info=0 / no-lowpass-dct / refine-analysis-type=0 / copy-pic=1 / max-ausize-factor=1.0 / no-dynamic-refine / no-single-sei / no-hevc-aq / no-svt / no-field / qp-adaptation-range=1.00 / scenecut-aware-qp=0conformance-window-offsets / right=0 / bottom=0 / decoder-max-rate=0 / no-vbv-live-multi-pass
Language                                 : Chinese
Default                                  : Yes
Forced                                   : No
Color range                              : Limited
Color primaries                          : BT.709
Transfer characteristics                 : BT.709
Matrix coefficients                      : BT.709

Audio
ID                                       : 2
Format                                   : AAC LC
Format/Info                              : Advanced Audio Codec Low Complexity
Codec ID                                 : A_AAC-2
Duration                                 : 14 min 37 s
Bit rate                                 : 192 kb/s
Channel(s)                               : 2 channels
Channel layout                           : L R
Sampling rate                            : 44.1 kHz
Frame rate                               : 43.066 FPS (1024 SPF)
Compression mode                         : Lossy
Stream size                              : 19.8 MiB (4%)
Language                                 : Chinese
Default                                  : Yes
Forced                                   : No

Text #1
ID                                       : 3
Format                                   : ASS
Codec ID                                 : S_TEXT/ASS
Codec ID/Info                            : Advanced Sub Station Alpha
Duration                                 : 13 min 46 s
Bit rate                                 : 7 318 b/s
Count of elements                        : 4408
Compression mode                         : Lossless
Stream size                              : 739 KiB (0%)
Title                                    : [HaOYuN]
Language                                 : English
Default                                  : Yes
Forced                                   : No

Text #2
ID                                       : 4
Format                                   : ASS
Codec ID                                 : S_TEXT/ASS
Codec ID/Info                            : Advanced Sub Station Alpha
Duration                                 : 13 min 45 s
Bit rate                                 : 96 b/s
Count of elements                        : 201
Compression mode                         : Lossless
Stream size                              : 9.77 KiB (0%)
Title                                    : Youku Animation (Restyled)
Language                                 : English
Default                                  : No
Forced                                   : No

Text #3
ID                                       : 5
Format                                   : ASS
Codec ID                                 : S_TEXT/ASS
Codec ID/Info                            : Advanced Sub Station Alpha
Duration                                 : 14 min 37 s
Bit rate                                 : 3 597 b/s
Count of elements                        : 2586
Compression mode                         : Lossless
Stream size                              : 385 KiB (0%)
Title                                    : [Anixlife] by ExRen
Language                                 : Indonesian
Default                                  : No
Forced                                   : No

Menu
00:00:00.000                             : en:Credit
00:00:16.000                             : en:Opening Song
00:01:48.680                             : en:Episode
00:12:04.000                             : en:Next Episode (Preview)
00:12:42.640                             : en:Donghua Trailer
00:12:57.640                             : en:Ending Song

Other Files in this Torrent
[SanKyuu] Apotheosis - 009v2 (WEBRip 1080p HEVC AAC) [30DE9412].mkv
beta
Anime DDL+NZB mirror
Current Time: 23/04/2024 08:29



About/FAQs

Discord