[Samurai] Mangirl! - 04 [720p][C822C686].mkv


File Size55.60 MB (58,302,899 bytes)
DownloadEmbedUpload | MirrorStack | MultiUpload | Sendspace | ShareBeast
HashesCRC32: C822C686, MD5: 7DB3B4441070457FEC4AE2076ECF2B09, SHA1: 24C31C3CDDCA9D9FADEC704861E780241A12CF9D, SHA256: 0863751211312C2FF1EDEA4CF9A3D0475DFA5AF747F0094D895AFAD19B499778, ED2K: 8E3DFF2B764DCA41E3668360961B7BE1
Screenshots
screenshotscreenshotscreenshotscreenshot
Subtitles#3: und [ASS]
Additional Info
General
Unique ID                                : 199435966030287156947744425261433811626 (0x9609F84B23F5BFE5BC5558E2D502F2AA)
Complete name                            : [Samurai] Mangirl! - 04 [720p][C822C686].mkv
Format                                   : Matroska
Format version                           : Version 4 / Version 2
File size                                : 55.6 MiB
Duration                                 : 3mn 30s
Overall bit rate                         : 2 220 Kbps
Encoded date                             : UTC 2013-01-26 22:37:20
Writing application                      : mkvmerge v5.9.0 ('On The Loose') built on Dec 31 2012 17:36:59
Writing library                          : libebml v1.3.0 + libmatroska v1.4.0

Video
ID                                       : 1
Format                                   : AVC
Format/Info                              : Advanced Video Codec
Format profile                           : High@L4.1
Format settings, CABAC                   : Yes
Format settings, ReFrames                : 5 frames
Codec ID                                 : V_MPEG4/ISO/AVC
Duration                                 : 3mn 30s
Bit rate                                 : 1 791 Kbps
Width                                    : 1 280 pixels
Height                                   : 720 pixels
Display aspect ratio                     : 16:9
Frame rate                               : 23.976 fps
Color space                              : YUV
Chroma subsampling                       : 4:2:0
Bit depth                                : 8 bits
Scan type                                : Progressive
Bits/(Pixel*Frame)                       : 0.081
Stream size                              : 44.9 MiB (81%)
Writing library                          : x264 core 129 r2230 1cffe9f
Encoding settings                        : cabac=1 / ref=5 / deblock=1:-2:-2 / analyse=0x3:0x133 / me=umh / subme=9 / psy=1 / psy_rd=1.00:0.00 / mixed_ref=1 / me_range=64 / chroma_me=1 / trellis=0 / 8x8dct=1 / cqm=0 / deadzone=21,11 / fast_pskip=1 / chroma_qp_offset=-2 / threads=16 / lookahead_threads=2 / sliced_threads=0 / nr=0 / decimate=1 / interlaced=0 / bluray_compat=0 / constrained_intra=0 / bframes=3 / b_pyramid=0 / b_adapt=1 / b_bias=0 / direct=3 / weightb=1 / open_gop=0 / weightp=2 / keyint=240 / keyint_min=23 / scenecut=40 / intra_refresh=0 / rc_lookahead=40 / rc=crf / mbtree=1 / crf=20.0 / qcomp=0.60 / qpmin=0 / qpmax=28 / qpstep=8 / ip_ratio=1.40 / aq=1:1.00
Default                                  : Yes
Forced                                   : No

Audio
ID                                       : 2
Format                                   : AC-3
Format/Info                              : Audio Coding 3
Mode extension                           : CM (complete main)
Format settings, Endianness              : Big
Codec ID                                 : A_AC3
Duration                                 : 3mn 30s
Bit rate mode                            : Constant
Bit rate                                 : 384 Kbps
Channel(s)                               : 2 channels
Channel positions                        : Front: L R
Sampling rate                            : 48.0 KHz
Bit depth                                : 16 bits
Compression mode                         : Lossy
Stream size                              : 9.62 MiB (17%)
Default                                  : Yes
Forced                                   : No

Text
ID                                       : 3
Format                                   : ASS
Codec ID                                 : S_TEXT/ASS
Codec ID/Info                            : Advanced Sub Station Alpha
Compression mode                         : Lossless
Default                                  : Yes
Forced                                   : No
beta
Anime DDL+NZB mirror
Current Time: 17/01/2018 12:56



About/FAQs