File Size271.3 MB (284,434,333 bytes)
DownloadEmbedUpload | MirrorStack | MultiUpload | Sendspace
ShareBeast: Part1, Part2
HashesCRC32: 97458976, MD5: 38E674391B5B57D2E819995F49F6BEFF, SHA1: E8B8696625629D42602D660CF75E7F59353A0ADD, SHA256: 07E9798DF660DE73720467BA34E8808A2362FF8BA9112BC044E82500CBEFF0A1, ED2K: 6ACD9B50CA537EEB60BE7C44389E1F0B
Screenshots
screenshotscreenshotscreenshotscreenshotscreenshot
Subtitles#3: und [ASS]
Additional Info
General
Unique ID                                : 182955278147193772459027366098094921529 (0x89A3E7A558B54D8886270851CFA21739)
Complete name                            : [Samurai] Kotoura-san - 01 [720p][C4F152F1].mkv
Format                                   : Matroska
Format version                           : Version 4 / Version 2
File size                                : 271 MiB
Duration                                 : 24mn 0s
Overall bit rate                         : 1 580 Kbps
Encoded date                             : UTC 2013-01-23 22:48:43
Writing application                      : mkvmerge v5.9.0 ('On The Loose') built on Dec 31 2012 17:36:59
Writing library                          : libebml v1.3.0 + libmatroska v1.4.0

Video
ID                                       : 1
Format                                   : AVC
Format/Info                              : Advanced Video Codec
Format profile                           : High@L4.1
Format settings, CABAC                   : Yes
Format settings, ReFrames                : 4 frames
Codec ID                                 : V_MPEG4/ISO/AVC
Duration                                 : 24mn 0s
Bit rate                                 : 1 165 Kbps
Width                                    : 1 280 pixels
Height                                   : 720 pixels
Display aspect ratio                     : 16:9
Frame rate                               : 23.976 fps
Standard                                 : NTSC
Color space                              : YUV
Chroma subsampling                       : 4:2:0
Bit depth                                : 8 bits
Scan type                                : Progressive
Bits/(Pixel*Frame)                       : 0.053
Stream size                              : 200 MiB (74%)
Writing library                          : x264 core 129 r2230 1cffe9f
Encoding settings                        : cabac=1 / ref=3 / deblock=1:0:0 / analyse=0x3:0x113 / me=umh / subme=7 / psy=1 / psy_rd=1.00:0.00 / mixed_ref=1 / me_range=32 / chroma_me=1 / trellis=1 / 8x8dct=1 / cqm=0 / deadzone=21,11 / fast_pskip=1 / chroma_qp_offset=-2 / threads=6 / lookahead_threads=1 / sliced_threads=0 / nr=0 / decimate=1 / interlaced=0 / bluray_compat=0 / constrained_intra=0 / bframes=3 / b_pyramid=2 / b_adapt=1 / b_bias=10 / direct=1 / weightb=1 / open_gop=0 / weightp=2 / keyint=250 / keyint_min=23 / scenecut=40 / intra_refresh=0 / rc_lookahead=40 / rc=crf / mbtree=1 / crf=21.0 / qcomp=0.60 / qpmin=0 / qpmax=69 / qpstep=4 / ip_ratio=1.40 / aq=1:1.10
Default                                  : Yes
Forced                                   : No

Audio
ID                                       : 2
Format                                   : AC-3
Format/Info                              : Audio Coding 3
Mode extension                           : CM (complete main)
Format settings, Endianness              : Big
Codec ID                                 : A_AC3
Duration                                 : 24mn 0s
Bit rate mode                            : Constant
Bit rate                                 : 384 Kbps
Channel(s)                               : 2 channels
Channel positions                        : Front: L R
Sampling rate                            : 48.0 KHz
Bit depth                                : 16 bits
Compression mode                         : Lossy
Stream size                              : 65.9 MiB (24%)
Default                                  : Yes
Forced                                   : No

Text
ID                                       : 3
Format                                   : ASS
Codec ID                                 : S_TEXT/ASS
Codec ID/Info                            : Advanced Sub Station Alpha
Compression mode                         : Lossless
Default                                  : Yes
Forced                                   : No
beta
Anime DDL+NZB mirror
Current Time: 18/12/2017 04:56



About/FAQs