File Size2.558 GB (2,746,741,648 bytes)
DownloadClickNUpload: Part1, Part2
DailyUploads: Part1, Part2, Part3
DownloadGG: Part1, Part2, Part3
GoFile: Part1, Part2
KrakenFiles: Part1, Part2, Part3
MdiaLoad: Part1, Part2
MultiUp: Part1
  • BdUpload
  • DownAce
  • Fichier
  • FileCloud
  • Filerio
  • FilesCdn
  • IndiShare
  • Kbagi
  • Turbobit
  • UpToBox
  • Uppit
, Part2
  • BdUpload
  • DownAce
  • Fichier
  • FileCloud
  • Filerio
  • FilesCdn
  • IndiShare
  • Kbagi
  • Turbobit
  • UpToBox
  • Uppit
, Part3
  • BdUpload
  • DownAce
  • Fichier
  • FileCloud
  • Filerio
  • FilesCdn
  • IndiShare
  • Kbagi
  • Turbobit
  • UpToBox
  • Uppit
, Part4
  • BdUpload
  • DownAce
  • Fichier
  • FileCloud
  • Filerio
  • FilesCdn
  • IndiShare
  • Kbagi
  • Turbobit
  • UpToBox
  • Uppit
, Part5
  • BdUpload
  • DownAce
  • Fichier
  • FileCloud
  • Filerio
  • FilesCdn
  • IndiShare
  • Kbagi
  • Turbobit
  • UpToBox
  • Uppit
, Part6
  • BdUpload
  • DownAce
  • Fichier
  • FileCloud
  • Filerio
  • FilesCdn
  • IndiShare
  • Kbagi
  • Turbobit
  • UpToBox
  • Uppit

Uppit: Part1, Part2, Part3
HashesCRC32: 80D809C0, MD5: 191E98B0881DA711220CD7664A530242, SHA1: CE74D645390F0EE2C49A95BF42D8A09C7D6C1FEA, SHA256: 3ABF27454691F1920CBF48A0A627CABBEA35523DFA9336ADE98EE6A4F618ADC8, ED2K: F89E183F2C145B2BB2408E610FD18B7F
Screenshots
screenshotscreenshotscreenshotscreenshotscreenshot
SubtitlesAll Attachments | Full Subtitles [sam] [eng, ASS], Signs/Songs [sam] [eng, ASS]
Additional Info
General
Unique ID                                : 167514873530633028398355986695332975438 (0x7E0630EC577BFD7D49AADBF9A80E534E)
Complete name                            : [sam] Paripi Koumei - 02 [BD 1080p FLAC] [80D809C0].mkv
Format                                   : Matroska
Format version                           : Version 4
File size                                : 2.56 GiB
Duration                                 : 23 min 40 s
Overall bit rate mode                    : Variable
Overall bit rate                         : 15.5 Mb/s
Frame rate                               : 23.976 FPS
Movie name                               : Paripi Koumei - 02
Encoded date                             : 2023-12-29 15:08:02 UTC
Writing application                      : mkvmerge v78.0 ('Running') 64-bit
Writing library                          : libebml v1.4.4 + libmatroska v1.7.1
Attachments                              : arial.TTF / BrushStrokes.ttf / CronosPro.ttf / DkCoolCrayon.ttf / LtfinneganMedium.TTF / LtfinneganMediumItalic.TTF / SpectralSc-BoldItalic.ttf / Fot-caratStdUb-Black.otf / Fot-comicreggaeStdB-Bold.otf / Fot-rodinPronB-Bold.otf / Fot-rowdyStdEb-ExtraBold.otf / Fot-yurukaStdUb-Black.otf / Fot-ロダンPronB-Bold.otf / Fot-ロダンPronDb-SemiBold.otf / Fot-ロダンPronEb-ExtraBold.otf

Video
ID                                       : 1
Format                                   : HEVC
Format/Info                              : High Efficiency Video Coding
Format profile                           : Main 10@L4@Main
Codec ID                                 : V_MPEGH/ISO/HEVC
Duration                                 : 23 min 40 s
Bit rate                                 : 13.7 Mb/s
Width                                    : 1 920 pixels
Height                                   : 1 080 pixels
Display aspect ratio                     : 16:9
Frame rate mode                          : Constant
Frame rate                               : 23.976 (24000/1001) FPS
Color space                              : YUV
Chroma subsampling                       : 4:2:0
Bit depth                                : 10 bits
Bits/(Pixel*Frame)                       : 0.275
Stream size                              : 2.26 GiB (88%)
Title                                    : BDrip by sam
Writing library                          : x265 3.5+131-c5c0aa6fd:[DJATOM's Mod][Windows][GCC 13.1.0][64 bit] 10bit
Encoding settings                        : cpuid=1111039 / frame-threads=5 / numa-pools=32 / wpp / no-pmode / no-pme / no-psnr / no-ssim / log-level=2 / csv / csv-log-level=0 / input-csp=1 / input-res=1920x1080 / interlace=0 / total-frames=34046 / level-idc=0 / high-tier=1 / uhd-bd=0 / ref=5 / no-allow-non-conformance / no-repeat-headers / annexb / no-aud / no-eob / no-eos / no-hrd / info / hash=0 / temporal-layers=0 / no-open-gop / min-keyint=23 / keyint=240 / gop-lookahead=0 / bframes=12 / b-adapt=2 / b-pyramid / bframe-bias=0 / rc-lookahead=60 / lookahead-slices=0 / scenecut=40 / no-hist-scenecut / radl=0 / no-splice / no-intra-refresh / ctu=64 / min-cu-size=8 / no-rect / no-amp / max-tu-size=32 / tu-inter-depth=2 / tu-intra-depth=2 / limit-tu=0 / rdoq-level=2 / dynamic-rd=0.00 / no-ssim-rd / signhide / no-tskip / nr-intra=0 / nr-inter=0 / no-constrained-intra / no-strong-intra-smoothing / max-merge=5 / limit-refs=1 / no-limit-modes / me=3 / subme=5 / merange=57 / temporal-mvp / no-frame-dup / no-hme / weightp / weightb / no-analyze-src-pics / deblock=-2:-2 / no-sao / no-sao-non-deblock / rd=3 / selective-sao=0 / no-early-skip / no-rskip / no-fast-intra / no-tskip-fast / no-cu-lossless / b-intra / no-splitrd-skip / rdpenalty=0 / psy-rd=2.00 / psy-rdoq=2.00 / no-rd-refine / no-lossless / cbqpoffs=-2 / crqpoffs=-2 / rc=crf / crf=12.5 / qcomp=0.72 / qpstep=4 / stats-write=0 / stats-read=0 / ipratio=1.40 / pbratio=1.30 / aq-mode=3 / aq-strength=0.80 / aq-bias-strength=1.00 / no-cutree / zone-count=8 / zones: / start-frame=1344 / end-frame=3500 / bitrate-factor=1.200000 / zones: / start-frame=1480 / end-frame=1490 / bitrate-factor=0.800000 / zones: / start-frame=1502 / end-frame=1512 / bitrate-factor=0.800000 / zones: / start-frame=1842 / end-frame=1934 / bitrate-factor=0.800000 / zones: / start-frame=2022 / end-frame=2113 / bitrate-factor=0.800000 / zones: / start-frame=2204 / end-frame=2260 / bitrate-factor=0.800000 / zones: / start-frame=2382 / end-frame=2473 / bitrate-factor=0.800000 / zones: / start-frame=2561 / end-frame=2649 / bitrate-factor=0.800000 / no-strict-cbr / qg-size=32 / no-rc-grain / qpmax=69 / qpmin=0 / no-const-vbv / sar=1 / overscan=0 / videoformat=5 / range=0 / colorprim=1 / transfer=1 / colormatrix=1 / chromaloc=0 / display-window=0 / cll=0,0 / min-luma=64 / max-luma=940 / log2-max-poc-lsb=8 / vui-timing-info / vui-hrd-info / slices=1 / no-opt-qp-pps / no-opt-ref-list-length-pps / no-multi-pass-opt-rps / scenecut-bias=0.05 / no-opt-cu-delta-qp / no-aq-motion / no-hdr10 / no-hdr10-opt / no-dhdr10-opt / no-idr-recovery-sei / analysis-reuse-level=0 / analysis-save-reuse-level=0 / analysis-load-reuse-level=0 / scale-factor=0 / refine-intra=0 / refine-inter=0 / refine-mv=1 / refine-ctu-distortion=0 / no-limit-sao / ctu-info=0 / no-lowpass-dct / refine-analysis-type=0 / copy-pic=1 / max-ausize-factor=1.0 / no-dynamic-refine / no-single-sei / no-hevc-aq / no-svt / no-field / qp-adaptation-range=1.00 / scenecut-aware-qp=0conformance-window-offsets / right=0 / bottom=0 / decoder-max-rate=0 / no-vbv-live-multi-pass / no-mcstf / no-sbrc
Language                                 : Japanese
Default                                  : Yes
Forced                                   : No
Color range                              : Limited
Color primaries                          : BT.709
Transfer characteristics                 : BT.709
Matrix coefficients                      : BT.709

Audio #1
ID                                       : 2
Format                                   : FLAC
Format/Info                              : Free Lossless Audio Codec
Codec ID                                 : A_FLAC
Duration                                 : 23 min 40 s
Bit rate mode                            : Variable
Bit rate                                 : 706 kb/s
Channel(s)                               : 2 channels
Channel layout                           : L R
Sampling rate                            : 48.0 kHz
Frame rate                               : 11.719 FPS (4096 SPF)
Bit depth                                : 16 bits
Compression mode                         : Lossless
Stream size                              : 120 MiB (5%)
Title                                    : FLAC 2.0
Writing library                          : libFLAC 1.4.3 (2023-06-23)
Language                                 : Japanese
Default                                  : Yes
Forced                                   : No
MD5 of the unencoded content             : 75978501D69580C017158DD6C50DE678

Audio #2
ID                                       : 3
Format                                   : FLAC
Format/Info                              : Free Lossless Audio Codec
Codec ID                                 : A_FLAC
Duration                                 : 23 min 40 s
Bit rate mode                            : Variable
Bit rate                                 : 768 kb/s
Channel(s)                               : 2 channels
Channel layout                           : L R
Sampling rate                            : 48.0 kHz
Frame rate                               : 11.719 FPS (4096 SPF)
Bit depth                                : 16 bits
Compression mode                         : Lossless
Stream size                              : 130 MiB (5%)
Title                                    : FLAC 2.0
Writing library                          : libFLAC 1.4.3 (2023-06-23)
Language                                 : English
Default                                  : No
Forced                                   : No
MD5 of the unencoded content             : 3737BA1A584EE1CC659512054C3C614F

Text #1
ID                                       : 4
Format                                   : ASS
Codec ID                                 : S_TEXT/ASS
Codec ID/Info                            : Advanced Sub Station Alpha
Duration                                 : 23 min 37 s
Bit rate                                 : 70.1 kb/s
Frame rate                               : 6.169 FPS
Count of elements                        : 8745
Compression mode                         : Lossless
Stream size                              : 11.8 MiB (0%)
Title                                    : Full Subtitles [sam]
Language                                 : English
Default                                  : Yes
Forced                                   : No

Text #2
ID                                       : 5
Format                                   : ASS
Codec ID                                 : S_TEXT/ASS
Codec ID/Info                            : Advanced Sub Station Alpha
Duration                                 : 22 min 40 s
Bit rate                                 : 72.8 kb/s
Frame rate                               : 6.133 FPS
Count of elements                        : 8346
Compression mode                         : Lossless
Stream size                              : 11.8 MiB (0%)
Title                                    : Signs/Songs [sam]
Language                                 : English
Default                                  : No
Forced                                   : Yes

Menu
00:00:00.000                             : en:Prologue
00:00:56.056                             : en:Opening
00:02:26.021                             : en:Part A
00:13:31.019                             : en:Part B
00:21:14.982                             : en:Ending
00:22:52.955                             : en:Epilogue
beta
Anime DDL+NZB mirror
Current Time: 13/06/2024 03:07



About/FAQs

Discord