[SallySubs] One Punch Man - OAD 6 [BD 1080p FLAC] [D2CAFCC5].mkv


File Size300.1 MB (314,674,191 bytes)
DownloadGo4Up | Jheberg | MultiUp
  • ClickNupload
  • Fichier
  • Filerio
  • Free
  • Fufox
  • HugeFiles
  • Mightyupload
  • ToutBox
  • Turbobit
  • UpToBox
  • Uplea
  • UploadBaz
  • Uploadable
  • Uploaded
  • Uppit
  • Userscloud
| OpenLoad | SolidFiles | UsersCloud
Sendspace: Part1, Part2
HashesCRC32: D2CAFCC5, MD5: 528045BFB9558533D7685B8C9A920ACF, SHA1: D0E962C1432EB4383E5BD3DDAB864A3661BBC896, SHA256: 91988931BAE045CC3A4A1D1C98EBDD3D933745E10500FAA142F697842ECBC446, ED2K: 36DF14C151E6B2D6DFC99CAF22518F12
Screenshots
screenshotscreenshotscreenshotscreenshotscreenshot
SubtitlesAll Attachments | und [ASS]
Additional Info
General
Unique ID                                : 232340011286738571072654983085989240461 (0xAECB0EF9F6A5C6618296447233471E8D)
Complete name                            : [SallySubs] One Punch Man - OAD 6 [BD 1080p FLAC] [D2CAFCC5].mkv
Format                                   : Matroska
Format version                           : Version 4 / Version 2
File size                                : 300 MiB
Duration                                 : 12 min 22 s
Overall bit rate mode                    : Variable
Overall bit rate                         : 3 391 kb/s
Encoded date                             : UTC 2016-10-27 16:56:19
Writing application                      : mkvmerge v9.5.0 ('Quiet Fire') 64bit
Writing library                          : libebml v1.3.4 + libmatroska v1.4.5
Attachments                              : Rosario-Bold.ttf / Rosario-BoldItalic.ttf / SubClearSans-Bold.ttf / DISTInkingFxd-Bold.otf

Video
ID                                       : 2
Format                                   : AVC
Format/Info                              : Advanced Video Codec
Format profile                           : High 10@L5.1
Format settings, CABAC                   : Yes
Format settings, ReFrames                : 15 frames
Codec ID                                 : V_MPEG4/ISO/AVC
Duration                                 : 12 min 22 s
Bit rate                                 : 2 703 kb/s
Width                                    : 1 920 pixels
Height                                   : 1 080 pixels
Display aspect ratio                     : 16:9
Frame rate mode                          : Constant
Frame rate                               : 23.976 (24000/1001) FPS
Color space                              : YUV
Chroma subsampling                       : 4:2:0
Bit depth                                : 10 bits
Scan type                                : Progressive
Bits/(Pixel*Frame)                       : 0.054
Stream size                              : 239 MiB (80%)
Writing library                          : x264 core 129 r2245+729M 1a52e03
Encoding settings                        : cabac=1 / ref=15 / deblock=1:1:1 / analyse=0x3:0x133 / me=umh / subme=10 / psy=1 / fade_compensate=0.00 / psy_rd=0.70:0.00 / mixed_ref=1 / me_range=24 / chroma_me=1 / trellis=2 / 8x8dct=1 / cqm=0 / deadzone=21,11 / fast_pskip=0 / chroma_qp_offset=-2 / threads=12 / lookahead_threads=3 / sliced_threads=0 / nr=0 / decimate=1 / interlaced=0 / bluray_compat=0 / constrained_intra=0 / fgo=0 / bframes=10 / b_pyramid=2 / b_adapt=2 / b_bias=0 / direct=3 / weightb=1 / open_gop=0 / weightp=2 / keyint=250 / keyint_min=25 / scenecut=40 / intra_refresh=0 / rc_lookahead=250 / rc=crf / mbtree=1 / crf=16.0 / qcomp=0.70 / qpmin=0 / qpmax=81 / qpstep=4 / ip_ratio=1.40 / aq=3:0.90
Language                                 : English
Default                                  : Yes
Forced                                   : No
Color range                              : Limited
Color primaries                          : BT.709
Transfer characteristics                 : BT.709
Matrix coefficients                      : BT.709

Audio
ID                                       : 3
Format                                   : FLAC
Format/Info                              : Free Lossless Audio Codec
Codec ID                                 : A_FLAC
Duration                                 : 12 min 22 s
Bit rate mode                            : Variable
Bit rate                                 : 681 kb/s
Channel(s)                               : 2 channels
Channel positions                        : Front: L R
Sampling rate                            : 48.0 kHz
Frame rate                               : 11.720 FPS (4096 spf)
Bit depth                                : 16 bits
Stream size                              : 60.3 MiB (20%)
Writing library                          : libFLAC 1.3.0 (UTC 2013-05-26)
Default                                  : Yes
Forced                                   : No

Text
ID                                       : 1
Format                                   : ASS
Codec ID                                 : S_TEXT/ASS
Codec ID/Info                            : Advanced Sub Station Alpha
Duration                                 : 10 min 42 s
Bit rate                                 : 151 b/s
Count of elements                        : 212
Compression mode                         : Lossless
Stream size                              : 11.9 KiB (0%)
Default                                  : Yes
Forced                                   : No

Menu
00:00:00.000                             : en:Episode
00:10:44.060                             : en:Ending

Other Files in this Torrent
[SallySubs] One Punch Man - OAD 6 [BD 1080p FLAC] [D2CAFCC5].mkv
beta
Anime DDL+NZB mirror
Current Time: 02/12/2021 16:13



About/FAQs

Discord