[SallySubs] One Punch Man - 11 [BD 1080p FLAC] [3FDA0992].mkv


File Size889.5 MB (932,715,894 bytes)
DownloadJheberg | MultiUp
  • ClickNupload
  • Fichier
  • Filerio
  • Free
  • Fufox
  • HugeFiles
  • Mightyupload
  • ToutBox
  • Turbobit
  • UpToBox
  • Uplea
  • UploadBaz
  • Uploadable
  • Uploaded
  • Uppit
  • Userscloud
| OpenLoad | UsersCloud
Sendspace: Part1, Part2, Part3
SolidFiles: Part1, Part2
HashesCRC32: 3FDA0992, MD5: 6786736207402B18FE219CB34799B421, SHA1: AEFF436416DC0EEFC06E06026C45B0B336432298, SHA256: 0DEAA911D6EA4950E3252F5426B761BD5D866366EE0A12EFF918FCEA9FF0D536, ED2K: 56E21B858EADE31669B16BE17D277FD0
Screenshots
screenshotscreenshotscreenshotscreenshotscreenshot
SubtitlesAll Attachments | und [ASS]
Additional Info
General
Unique ID                                : 208540766149402750668154774052396211738 (0x9CE37D98F62CAA6EB3A34E4699361E1A)
Complete name                            : [SallySubs] One Punch Man - 11 [BD 1080p FLAC] [3FDA0992].mkv
Format                                   : Matroska
Format version                           : Version 4 / Version 2
File size                                : 890 MiB
Duration                                 : 24 min 21 s
Overall bit rate mode                    : Variable
Overall bit rate                         : 5 106 kb/s
Encoded date                             : UTC 2016-10-27 16:54:13
Writing application                      : mkvmerge v9.5.0 ('Quiet Fire') 64bit
Writing library                          : libebml v1.3.4 + libmatroska v1.4.5
Attachments                              : Franchise-Bold-hinted.ttf / JandaAmazingGrace-Regular.ttf / JandaEverydayCasual.ttf / JennaSue.ttf / Rosario-Bold.ttf / Rosario-BoldItalic.ttf / AdobeHeiti-Kami.ttf / Brush Strokes.ttf / DISTInkingFxd-Bold.otf

Video
ID                                       : 2
Format                                   : AVC
Format/Info                              : Advanced Video Codec
Format profile                           : High 10@L5.1
Format settings, CABAC                   : Yes
Format settings, ReFrames                : 15 frames
Codec ID                                 : V_MPEG4/ISO/AVC
Duration                                 : 24 min 21 s
Bit rate                                 : 4 304 kb/s
Width                                    : 1 920 pixels
Height                                   : 1 080 pixels
Display aspect ratio                     : 16:9
Frame rate mode                          : Constant
Frame rate                               : 23.976 (24000/1001) FPS
Color space                              : YUV
Chroma subsampling                       : 4:2:0
Bit depth                                : 10 bits
Scan type                                : Progressive
Bits/(Pixel*Frame)                       : 0.087
Stream size                              : 750 MiB (84%)
Writing library                          : x264 core 129 r2245+729M 1a52e03
Encoding settings                        : cabac=1 / ref=15 / deblock=1:1:1 / analyse=0x3:0x133 / me=umh / subme=10 / psy=1 / fade_compensate=0.00 / psy_rd=0.70:0.00 / mixed_ref=1 / me_range=24 / chroma_me=1 / trellis=2 / 8x8dct=1 / cqm=0 / deadzone=21,11 / fast_pskip=0 / chroma_qp_offset=-2 / threads=12 / lookahead_threads=3 / sliced_threads=0 / nr=0 / decimate=1 / interlaced=0 / bluray_compat=0 / constrained_intra=0 / fgo=0 / bframes=10 / b_pyramid=2 / b_adapt=2 / b_bias=0 / direct=3 / weightb=1 / open_gop=0 / weightp=2 / keyint=250 / keyint_min=25 / scenecut=40 / intra_refresh=0 / rc_lookahead=250 / rc=crf / mbtree=1 / crf=16.0 / qcomp=0.70 / qpmin=0 / qpmax=81 / qpstep=4 / ip_ratio=1.40 / aq=3:0.90
Language                                 : English
Default                                  : Yes
Forced                                   : No
Color range                              : Limited
Color primaries                          : BT.709
Transfer characteristics                 : BT.709
Matrix coefficients                      : BT.709

Audio
ID                                       : 3
Format                                   : FLAC
Format/Info                              : Free Lossless Audio Codec
Codec ID                                 : A_FLAC
Duration                                 : 24 min 21 s
Bit rate mode                            : Variable
Bit rate                                 : 795 kb/s
Channel(s)                               : 2 channels
Channel positions                        : Front: L R
Sampling rate                            : 48.0 kHz
Frame rate                               : 11.719 FPS (4096 spf)
Bit depth                                : 16 bits
Stream size                              : 139 MiB (16%)
Writing library                          : libFLAC 1.3.0 (UTC 2013-05-26)
Default                                  : Yes
Forced                                   : No

Text
ID                                       : 1
Format                                   : ASS
Codec ID                                 : S_TEXT/ASS
Codec ID/Info                            : Advanced Sub Station Alpha
Duration                                 : 23 min 45 s
Bit rate                                 : 237 b/s
Count of elements                        : 517
Compression mode                         : Lossless
Stream size                              : 41.3 KiB (0%)
Default                                  : Yes
Forced                                   : No

Menu
00:00:00.000                             : en:Prologue
00:02:15.009                             : en:Opening
00:03:45.099                             : en:Part A
00:12:22.825                             : en:Break
00:12:33.335                             : en:Part B
00:22:29.765                             : en:Ending
00:24:00.188                             : en:Preview

Other Files in this Torrent
[SallySubs] One Punch Man - 11 [BD 1080p FLAC] [3FDA0992].mkv
beta
Anime DDL+NZB mirror
Current Time: 02/12/2021 15:28



About/FAQs

Discord