[Saizen]_Captain_Tsubasa_Movie_The_Great_European_Showdown_[DVD][CB62A1ED].mkv


File Size535.2 MB (561,233,787 bytes)
DownloadFileFactory | JumboFiles | UploadedTo
HashesCRC32: CB62A1ED, MD5: B922F04DB8B9232178FFE0F0471B808F, SHA1: BF0682F430C9F15423C7F3F6AF363BA8D82923C9, SHA256: E18652F0990EBB7F56749B99000BB0BEB273E54AE977A9FDA03729F15271BAA5, ED2K: 56FEF193BFA8B3F25637F231E2012391
Screenshots
screenshotscreenshotscreenshotscreenshotscreenshot
Additional Info
General
Unique ID                                : 191949389989043108510402237499561152912 (0x90681B98B1ACAD37AA71D76CE4671190)
Complete name                            : [Saizen]_Captain_Tsubasa_Movie_The_Great_European_Showdown_[DVD][CB62A1ED].mkv
Format                                   : Matroska
Format version                           : Version 2
File size                                : 535 MiB
Duration                                 : 41mn 21s
Overall bit rate                         : 1 809 Kbps
Movie name                               : Captain Tsubasa - The Great European Showdown
Encoded date                             : UTC 2012-07-12 03:48:39
Writing application                      : mkvmerge v5.0.1 ('Es ist Sommer') built on Oct  9 2011 11:55:43
Writing library                          : libebml v1.2.2 + libmatroska v1.3.0
Attachment                               : Yes / Yes / Yes / Yes / Yes / Yes / Yes / Yes / Yes

Video
ID                                       : 1
Format                                   : AVC
Format/Info                              : Advanced Video Codec
Format profile                           : High@L3.2
Format settings, CABAC                   : Yes
Format settings, ReFrames                : 16 frames
Muxing mode                              : Header stripping
Codec ID                                 : V_MPEG4/ISO/AVC
Duration                                 : 41mn 21s
Bit rate                                 : 1 581 Kbps
Width                                    : 640 pixels
Height                                   : 480 pixels
Display aspect ratio                     : 4:3
Frame rate mode                          : Variable
Frame rate                               : 23.976 fps
Color space                              : YUV
Chroma subsampling                       : 4:2:0
Bit depth                                : 8 bits
Scan type                                : Progressive
Bits/(Pixel*Frame)                       : 0.215
Stream size                              : 468 MiB (87%)
Title                                    : Captain Tsubasa - The Great European Showdown
Writing library                          : x264 core 125
Encoding settings                        : cabac=1 / ref=16 / deblock=1:0:0 / analyse=0x3:0x133 / me=umh / subme=10 / psy=1 / psy_rd=1.00:0.00 / mixed_ref=1 / me_range=24 / chroma_me=1 / trellis=2 / 8x8dct=1 / cqm=0 / deadzone=21,11 / fast_pskip=0 / chroma_qp_offset=-2 / threads=6 / lookahead_threads=1 / sliced_threads=0 / nr=0 / decimate=0 / interlaced=0 / bluray_compat=0 / constrained_intra=0 / bframes=16 / b_pyramid=2 / b_adapt=2 / b_bias=0 / direct=3 / weightb=1 / open_gop=0 / weightp=2 / keyint=240 / keyint_min=24 / scenecut=40 / intra_refresh=0 / rc_lookahead=40 / rc=crf / mbtree=1 / crf=18.0 / qcomp=0.60 / qpmin=3 / qpmax=69 / qpstep=4 / ip_ratio=1.40 / aq=1:1.00
Language                                 : Japanese
Default                                  : Yes
Forced                                   : No
Color primaries                          : BT.601-6 525, BT.1358 525, BT.1700 NTSC, SMPTE 170M
Transfer characteristics                 : BT.709-5, BT.1361
Matrix coefficients                      : BT.601-6 525, BT.1358 525, BT.1700 NTSC, SMPTE 170M

Audio
ID                                       : 2
Format                                   : AC-3
Format/Info                              : Audio Coding 3
Mode extension                           : CM (complete main)
Format settings, Endianness              : Big
Muxing mode                              : Header stripping
Codec ID                                 : A_AC3
Duration                                 : 41mn 21s
Bit rate mode                            : Constant
Bit rate                                 : 192 Kbps
Channel(s)                               : 2 channels
Channel positions                        : Front: L R
Sampling rate                            : 48.0 KHz
Bit depth                                : 16 bits
Compression mode                         : Lossy
Stream size                              : 56.8 MiB (11%)
Title                                    : AC3 48000 Hz 2ch
Language                                 : Japanese
Default                                  : Yes
Forced                                   : No

Text
ID                                       : 3
Format                                   : ASS
Codec ID                                 : S_TEXT/ASS
Codec ID/Info                            : Advanced Sub Station Alpha
Compression mode                         : Lossless
Title                                    : English (ASS)
Language                                 : English
Default                                  : Yes
Forced                                   : No

Menu
00:00:00.000                             : :Part 1
00:09:49.500                             : :Part 2
00:26:34.480                             : :Part 3
00:39:26.700                             : :ED
beta
Anime DDL+NZB mirror
Current Time: 09/03/2021 10:48



About/FAQs