File Size58.61 MB (61,460,040 bytes)
DownloadEmbedUpload | MirrorStack | MultiUpload | Sendspace | ShareBeast
HashesCRC32: BAA2305A, MD5: B4AF476CF1C9F4C1F7B2C7144FB9218A, SHA1: D26314714A76BAC8ED74F6E76F882EAD784FC49F, SHA256: 3EF9A37CB31440C9E52129AB3D27AB3CB7A9C24B048B608C90DA7A5150616525, ED2K: 3CD6F911F11822A0818A778E9DC64272
Screenshots
screenshotscreenshotscreenshotscreenshot
Subtitles#3: und [ASS]
Additional Info
General
Unique ID                                : 188043696772790478069177250856898687427 (0x8D77E60DB7749EF9B1727ADF5C4871C3)
Complete name                            : [Safa] Mangirl! 01.mkv
Format                                   : Matroska
Format version                           : Version 2
File size                                : 58.6 MiB
Duration                                 : 3mn 30s
Overall bit rate                         : 2 340 Kbps
Encoded date                             : UTC 2013-01-15 06:25:46
Writing application                      : mkvmerge v5.7.0 ('The Whirlwind') built on Jul  8 2012 20:08:51
Writing library                          : libebml v1.2.3 + libmatroska v1.3.0

Video
ID                                       : 1
Format                                   : AVC
Format/Info                              : Advanced Video Codec
Format profile                           : High@L4.1
Format settings, CABAC                   : Yes
Format settings, ReFrames                : 9 frames
Codec ID                                 : V_MPEG4/ISO/AVC
Duration                                 : 3mn 30s
Bit rate                                 : 1 910 Kbps
Width                                    : 1 280 pixels
Height                                   : 720 pixels
Display aspect ratio                     : 16:9
Frame rate                               : 23.976 fps
Color space                              : YUV
Chroma subsampling                       : 4:2:0
Bit depth                                : 8 bits
Scan type                                : Progressive
Bits/(Pixel*Frame)                       : 0.086
Stream size                              : 47.8 MiB (82%)
Writing library                          : x264 core 128 r2216+698 b3c1019
Encoding settings                        : cabac=1 / ref=9 / deblock=1:0:0 / analyse=0x3:0x113 / me=umh / subme=8 / psy=1 / fade_compensate=0.00 / psy_rd=1.00:0.00 / mixed_ref=1 / me_range=16 / chroma_me=1 / trellis=1 / 8x8dct=1 / cqm=0 / deadzone=21,11 / fast_pskip=1 / chroma_qp_offset=-2 / threads=6 / lookahead_threads=1 / sliced_threads=0 / nr=0 / decimate=1 / interlaced=0 / bluray_compat=0 / constrained_intra=0 / fgo=0 / bframes=9 / b_pyramid=2 / b_adapt=2 / b_bias=0 / direct=3 / weightb=1 / open_gop=0 / weightp=2 / keyint=250 / keyint_min=23 / scenecut=40 / intra_refresh=0 / rc_lookahead=50 / rc=crf / mbtree=1 / crf=18.0000 / qcomp=0.60 / qpmin=0 / qpmax=69 / qpstep=4 / ip_ratio=1.40 / aq=1:1.00
Default                                  : Yes
Forced                                   : No

Audio
ID                                       : 2
Format                                   : AC-3
Format/Info                              : Audio Coding 3
Mode extension                           : CM (complete main)
Format settings, Endianness              : Big
Codec ID                                 : A_AC3
Duration                                 : 3mn 30s
Bit rate mode                            : Constant
Bit rate                                 : 384 Kbps
Channel(s)                               : 2 channels
Channel positions                        : Front: L R
Sampling rate                            : 48.0 KHz
Bit depth                                : 16 bits
Compression mode                         : Lossy
Stream size                              : 9.62 MiB (16%)
Default                                  : Yes
Forced                                   : No

Text
ID                                       : 3
Format                                   : ASS
Codec ID                                 : S_TEXT/ASS
Codec ID/Info                            : Advanced Sub Station Alpha
Compression mode                         : Lossless
Default                                  : Yes
Forced                                   : No
beta
Anime DDL+NZB mirror
Current Time: 19/06/2018 12:08



About/FAQs