File Size496.4 MB (520,544,583 bytes)
DownloadClickNUpload | DownloadGG | DropAPK | MultiUp
  • BdUpload
  • DownAce
  • Fichier
  • FileCloud
  • Filerio
  • FilesCdn
  • IndiShare
  • Kbagi
  • Turbobit
  • UpToBox
  • Uppit
| SolidFiles | ZippyShare
HashesCRC32: 5427FEF8, MD5: 512CB6C91BA3DB85D58CAA105E85C860, SHA1: 0502FB957F578FAA496C24BCFE279646B0F0BD3A, SHA256: DCE0E975C77F966670326BE4D0EA7A63C195172ABA41FDC3C560FD39A7B52594, ED2K: 89B74B0B9F3912521A8953349004E1B0
Screenshots
screenshotscreenshotscreenshotscreenshotscreenshot
SubtitlesAll Attachments | Signs & Songs@L.Y [eng, ASS], Dialogue@L.Y [eng, ASS]
Additional Info
General
Unique ID                                : 159997744003272215842694255944689057863 (0x785E71D2AF1138CB6F1A610AC5AD0047)
Complete name                            : S03E01-I'll Hold Another Banquet [5427FEF8].mkv
Format                                   : Matroska
Format version                           : Version 4
File size                                : 496 MiB
Duration                                 : 23 min 52 s
Overall bit rate                         : 2 908 kb/s
Movie name                               : S03E01-EMBER
Encoded date                             : UTC 2021-08-12 14:14:22
Writing application                      : mkvmerge v57.0.0 ('Till The End') 64-bit
Writing library                          : libebml v1.4.2 + libmatroska v1.6.4
Attachments                              : olivier.ttf / ROUNDED-MGENPLUS-1CP-REGULAR.TTF / TalkingToTheMoon.ttf / Callani.ttf / CorinthianW01-Bold.otf / Elementary, My dear.ttf / GandhiSans-Bold.otf / GandhiSans-BoldItalic.otf / LaCumpaFruitsBasket.otf / cover.png

Video
ID                                       : 1
Format                                   : HEVC
Format/Info                              : High Efficiency Video Coding
Format profile                           : Main 10@L4.1@High
Codec ID                                 : V_MPEGH/ISO/HEVC
Duration                                 : 23 min 52 s
Bit rate                                 : 2 053 kb/s
Width                                    : 1 920 pixels
Height                                   : 1 080 pixels
Display aspect ratio                     : 16:9
Frame rate mode                          : Constant
Frame rate                               : 23.976 (24000/1001) FPS
Color space                              : YUV
Chroma subsampling                       : 4:2:0
Bit depth                                : 10 bits
Bits/(Pixel*Frame)                       : 0.041
Stream size                              : 351 MiB (71%)
Title                                    : Presented By EMBER
Writing library                          : x265 2.4+14-bc0e9bd7c08f5ddc:[Windows][GCC 6.3.0][64 bit] 10bit: KG7x [x265.ru]
Encoding settings                        : cpuid=1050111 / frame-threads=3 / numa-pools=8 / wpp / no-pmode / no-pme / no-psnr / no-ssim / log-level=2 / input-csp=1 / input-res=1920x1080 / interlace=0 / total-frames=0 / level-idc=41 / high-tier=1 / uhd-bd=0 / ref=4 / no-allow-non-conformance / no-repeat-headers / annexb / no-aud / no-hrd / info / hash=0 / no-temporal-layers / open-gop / min-keyint=23 / keyint=250 / bframes=8 / b-adapt=2 / b-pyramid / bframe-bias=0 / rc-lookahead=60 / lookahead-slices=4 / scenecut=40 / no-intra-refresh / ctu=64 / min-cu-size=8 / rect / no-amp / max-tu-size=32 / tu-inter-depth=2 / tu-intra-depth=2 / limit-tu=4 / rdoq-level=2 / dynamic-rd=0.00 / no-ssim-rd / signhide / no-tskip / nr-intra=0 / nr-inter=0 / no-constrained-intra / strong-intra-smoothing / max-merge=3 / limit-refs=3 / limit-modes / me=3 / subme=3 / merange=57 / temporal-mvp / weightp / no-weightb / no-analyze-src-pics / deblock=0:-1 / no-sao / no-sao-non-deblock / rd=4 / no-early-skip / rskip / no-fast-intra / no-tskip-fast / no-cu-lossless / no-b-intra / rdpenalty=0 / psy-rd=1.20 / psy-rdoq=1.25 / no-rd-refine / analysis-mode=0 / no-lossless / cbqpoffs=0 / crqpoffs=0 / rc=crf / crf=17.8 / qcomp=0.60 / qpstep=4 / stats-write=0 / stats-read=0 / vbv-maxrate=50000 / vbv-bufsize=50000 / vbv-init=0.9 / crf-max=0.0 / crf-min=0.0 / ipratio=1.40 / pbratio=1.30 / aq-mode=3 / aq-strength=0.70 / cutree / zone-count=0 / no-strict-cbr / qg-size=32 / no-rc-grain / qpmax=69 / qpmin=0 / sar=0 / overscan=0 / videoformat=5 / range=0 / colorprim=1 / transfer=1 / colormatrix=1 / chromaloc=0 / display-window=0 / max-cll=0,0 / min-luma=0 / max-luma=1023 / log2-max-poc-lsb=8 / vui-timing-info / vui-hrd-info / slices=1 / opt-qp-pps / opt-ref-list-length-pps / no-multi-pass-opt-rps / scenecut-bias=0.05 / no-opt-cu-delta-qp / no-aq-motion / no-hdr / no-hdr-opt / no-dhdr10-opt / refine-level=5 / no-limit-sao / ctu-info=0
Default                                  : Yes
Forced                                   : No
Color range                              : Limited
Color primaries                          : BT.709
Transfer characteristics                 : BT.709
Matrix coefficients                      : BT.709

Audio #1
ID                                       : 2
Format                                   : AAC LC
Format/Info                              : Advanced Audio Codec Low Complexity
Codec ID                                 : A_AAC-2
Duration                                 : 23 min 50 s
Bit rate                                 : 253 kb/s
Channel(s)                               : 2 channels
Channel layout                           : L R
Sampling rate                            : 48.0 kHz
Frame rate                               : 46.875 FPS (1024 SPF)
Compression mode                         : Lossy
Stream size                              : 43.2 MiB (9%)
Title                                    : Golumpa@FUNI
Language                                 : English
Default                                  : Yes
Forced                                   : No

Audio #2
ID                                       : 3
Format                                   : AC-3
Format/Info                              : Audio Coding 3
Commercial name                          : Dolby Digital
Codec ID                                 : A_AC3
Duration                                 : 23 min 52 s
Bit rate mode                            : Constant
Bit rate                                 : 192 kb/s
Channel(s)                               : 2 channels
Channel layout                           : L R
Sampling rate                            : 48.0 kHz
Frame rate                               : 31.250 FPS (1536 SPF)
Bit depth                                : 16 bits
Compression mode                         : Lossy
Stream size                              : 32.8 MiB (7%)
Language                                 : Japanese
Service kind                             : Complete Main
Default                                  : No
Forced                                   : No

Text #1
ID                                       : 4
Format                                   : ASS
Codec ID                                 : S_TEXT/ASS
Codec ID/Info                            : Advanced Sub Station Alpha
Duration                                 : 22 min 57 s
Bit rate                                 : 12.9 kb/s
Count of elements                        : 9321
Compression mode                         : Lossless
Stream size                              : 2.12 MiB (0%)
Title                                    : Signs & Songs@L.Y
Language                                 : English
Default                                  : Yes
Forced                                   : No

Text #2
ID                                       : 5
Format                                   : ASS
Codec ID                                 : S_TEXT/ASS
Codec ID/Info                            : Advanced Sub Station Alpha
Duration                                 : 23 min 48 s
Bit rate                                 : 12.5 kb/s
Count of elements                        : 9609
Compression mode                         : Lossless
Stream size                              : 2.13 MiB (0%)
Title                                    : Dialogue@L.Y
Language                                 : English
Default                                  : No
Forced                                   : No

Menu
00:00:00.000                             : Intro
00:00:48.048                             : OP
00:02:18.012                             : Part A
00:11:52.002                             : Part B
00:22:15.042                             : ED
00:23:45.048                             : PV

Other Files in this Torrent
S03E01-I'll Hold Another Banquet [5427FEF8].mkv
beta
Anime DDL+NZB mirror
Current Time: 04/12/2021 08:06



About/FAQs

Discord