File Size428.7 MB (449,507,542 bytes)
DownloadClickNUpload | DownloadGG | MultiUp
  • BdUpload
  • DownAce
  • Fichier
  • FileCloud
  • Filerio
  • FilesCdn
  • IndiShare
  • Kbagi
  • Turbobit
  • UpToBox
  • Uppit
| ZippyShare
HashesCRC32: 8D2125D0, MD5: B0E3C61F862B9B993F5BE762A722E52B, SHA1: EC804BAEC2F16E8EF797572822400FA1B882765A, SHA256: 01D479BB0EC47052FCE8930BBAEF77BBA6BEBEFFCEDE94604F51CD57E5EEF282, ED2K: 278711271FEFA0732CDE0F024FD96B90
SubtitlesAll Attachments | Signs & Songs@EMBER [eng, ASS], Dialogue@EMBER [eng, ASS]
Additional Info
General
Unique ID                                : 64888592421314318733098625507586023477 (0x30D1169C188E87041BDB5B963F892035)
Complete name                            : S01E09-Rhyme and Beat [8D2125D0].mkv
Format                                   : Matroska
Format version                           : Version 4
File size                                : 429 MiB
Duration                                 : 23 min 40 s
Overall bit rate                         : 2 532 kb/s
Movie name                               : S01E09-EMBER
Encoded date                             : UTC 2021-12-30 16:03:57
Writing application                      : mkvmerge v63.0.0 ('Everything') 64-bit
Writing library                          : libebml v1.4.2 + libmatroska v1.6.4
Cover                                    : Yes
Attachments                              : GandhiSans-Bold.otf / GandhiSans-BoldItalic.otf / MIAMA.OTF / OpenSans-ExtraBold.ttf / OpenSans-Italic.ttf / OpenSans-Light.ttf / OpenSans-Regular.ttf / OpenSans-Semibold.ttf / ratio_.ttf / Arab Becker Brushstroke Regular.ttf / Average-Regular.ttf / Beach Normal.ttf / gadugib.ttf / cover.jpg

Video
ID                                       : 1
Format                                   : HEVC
Format/Info                              : High Efficiency Video Coding
Format profile                           : Main 10@L4@Main
Codec ID                                 : V_MPEGH/ISO/HEVC
Duration                                 : 23 min 40 s
Bit rate                                 : 1 892 kb/s
Width                                    : 1 920 pixels
Height                                   : 1 080 pixels
Display aspect ratio                     : 16:9
Frame rate mode                          : Constant
Frame rate                               : 23.976 (24000/1001) FPS
Color space                              : YUV
Chroma subsampling                       : 4:2:0
Bit depth                                : 10 bits
Bits/(Pixel*Frame)                       : 0.038
Stream size                              : 320 MiB (75%)
Title                                    : Presented By EMBER
Writing library                          : x265 3.2.1+1-b5c86a64bbbe:[Linux][GCC 9.3.0][64 bit] 10bit
Encoding settings                        : cpuid=1111039 / frame-threads=4 / wpp / no-pmode / no-pme / no-psnr / no-ssim / log-level=2 / input-csp=1 / input-res=1920x1080 / interlace=0 / total-frames=0 / level-idc=0 / high-tier=1 / uhd-bd=0 / ref=4 / no-allow-non-conformance / no-repeat-headers / annexb / no-aud / no-hrd / info / hash=0 / no-temporal-layers / open-gop / min-keyint=23 / keyint=250 / gop-lookahead=0 / bframes=8 / b-adapt=2 / b-pyramid / bframe-bias=0 / rc-lookahead=65 / lookahead-slices=4 / scenecut=40 / radl=0 / no-splice / no-intra-refresh / ctu=64 / min-cu-size=8 / no-rect / no-amp / max-tu-size=32 / tu-inter-depth=1 / tu-intra-depth=1 / limit-tu=0 / rdoq-level=2 / dynamic-rd=0.00 / no-ssim-rd / signhide / no-tskip / nr-intra=0 / nr-inter=0 / no-constrained-intra / strong-intra-smoothing / max-merge=3 / limit-refs=3 / limit-modes / me=3 / subme=4 / merange=57 / temporal-mvp / no-hme / weightp / no-weightb / no-analyze-src-pics / deblock=0:0 / sao / no-sao-non-deblock / rd=4 / selective-sao=4 / no-early-skip / rskip / no-fast-intra / no-tskip-fast / no-cu-lossless / no-b-intra / no-splitrd-skip / rdpenalty=0 / psy-rd=1.00 / psy-rdoq=2.00 / no-rd-refine / no-lossless / cbqpoffs=0 / crqpoffs=0 / rc=crf / crf=21.7 / qcomp=0.60 / qpstep=4 / stats-write=0 / stats-read=0 / ipratio=1.40 / pbratio=1.30 / aq-mode=3 / aq-strength=1.00 / cutree / zone-count=0 / no-strict-cbr / qg-size=32 / no-rc-grain / qpmax=69 / qpmin=0 / no-const-vbv / sar=1 / overscan=0 / videoformat=5 / range=0 / colorprim=2 / transfer=2 / colormatrix=2 / chromaloc=0 / display-window=0 / cll=0,0 / min-luma=0 / max-luma=1023 / log2-max-poc-lsb=8 / vui-timing-info / vui-hrd-info / slices=1 / no-opt-qp-pps / no-opt-ref-list-length-pps / no-multi-pass-opt-rps / scenecut-bias=0.05 / no-opt-cu-delta-qp / no-aq-motion / no-hdr / no-hdr-opt / no-dhdr10-opt / no-idr-recovery-sei / analysis-reuse-level=5 / scale-factor=0 / refine-intra=0 / refine-inter=0 / refine-mv=1 / refine-ctu-distortion=0 / no-limit-sao / ctu-info=0 / no-lowpass-dct / refine-analysis-type=0 / copy-pic=1 / max-ausize-factor=1.0 / no-dynamic-refine / no-single-sei / no-hevc-aq / no-svt / no-field / qp-adaptation-range=1.00
Default                                  : Yes
Forced                                   : No
Color range                              : Limited

Audio #1
ID                                       : 2
Format                                   : AAC LC
Format/Info                              : Advanced Audio Codec Low Complexity
Codec ID                                 : A_AAC-2
Duration                                 : 23 min 40 s
Bit rate                                 : 256 kb/s
Channel(s)                               : 2 channels
Channel layout                           : L R
Sampling rate                            : 48.0 kHz
Frame rate                               : 46.875 FPS (1024 SPF)
Compression mode                         : Lossy
Delay relative to video                  : 12 ms
Stream size                              : 43.3 MiB (10%)
Title                                    : Golumpa@FUNI
Language                                 : English
Default                                  : Yes
Forced                                   : No

Audio #2
ID                                       : 3
Format                                   : AAC LC
Format/Info                              : Advanced Audio Codec Low Complexity
Codec ID                                 : A_AAC-2
Duration                                 : 23 min 40 s
Bit rate                                 : 256 kb/s
Channel(s)                               : 2 channels
Channel layout                           : L R
Sampling rate                            : 48.0 kHz
Frame rate                               : 46.875 FPS (1024 SPF)
Compression mode                         : Lossy
Delay relative to video                  : 10 ms
Stream size                              : 43.3 MiB (10%)
Language                                 : Japanese
Default                                  : No
Forced                                   : No

Text #1
ID                                       : 4
Format                                   : ASS
Codec ID                                 : S_TEXT/ASS
Codec ID/Info                            : Advanced Sub Station Alpha
Duration                                 : 23 min 15 s
Bit rate                                 : 46.7 kb/s
Count of elements                        : 48524
Compression mode                         : Lossless
Stream size                              : 7.77 MiB (2%)
Title                                    : Signs & Songs@EMBER
Language                                 : English
Default                                  : Yes
Forced                                   : No

Text #2
ID                                       : 5
Format                                   : ASS
Codec ID                                 : S_TEXT/ASS
Codec ID/Info                            : Advanced Sub Station Alpha
Duration                                 : 23 min 34 s
Bit rate                                 : 46.2 kb/s
Count of elements                        : 48852
Compression mode                         : Lossless
Stream size                              : 7.79 MiB (2%)
Title                                    : Dialogue@EMBER
Language                                 : English
Default                                  : No
Forced                                   : No

Menu
00:00:00.000                             : en:Intro
00:00:16.000                             : en:OP
00:01:46.000                             : en:Main EP
00:22:07.000                             : en:ED
00:23:37.000                             : en:PV

Other Files in this Torrent
S01E09-Rhyme and Beat [8D2125D0].mkv
beta
Anime DDL+NZB mirror
Current Time: 20/05/2022 05:23



About/FAQs

Discord