File Size554.5 MB (581,477,123 bytes)
DownloadClickNUpload | DownloadGG | KrakenFiles
MultiUp: Part1
  • BdUpload
  • DownAce
  • Fichier
  • FileCloud
  • Filerio
  • FilesCdn
  • IndiShare
  • Kbagi
  • Turbobit
  • UpToBox
  • Uppit
, Part2
  • BdUpload
  • DownAce
  • Fichier
  • FileCloud
  • Filerio
  • FilesCdn
  • IndiShare
  • Kbagi
  • Turbobit
  • UpToBox
  • Uppit

ZippyShare: Part1, Part2
HashesCRC32: 5BEA31C0, MD5: 7B246C04D5FA24059592CCA7509C5DFD, SHA1: C0313D1FC23C1CDB4B35ED79C0B94243B253D272, SHA256: 97922DBE5B5215670F61C7A1A08227A3BDE15EB0B7A7CA8CDC73CCE644503127, ED2K: 7BA58B4D4A0F30F565973BFCA192B372
Screenshots
screenshotscreenshotscreenshotscreenshotscreenshot
SubtitlesAll Attachments | Non-Honorific [eng, ASS], Honorific [eng, ASS]
Additional Info
General
Unique ID                                : 208024573050787097615235008027711130589 (0x9C80135014B81FDB224801CB59F24BDD)
Complete name                            : S01E04-Kongming Lights the Way [5BEA31C0].mkv
Format                                   : Matroska
Format version                           : Version 4
File size                                : 555 MiB
Duration                                 : 23 min 40 s
Overall bit rate                         : 3 276 kb/s
Movie name                               : Ya.Boy.Kongming!.S01E04.1080p.BDRip.10.bits.DD.x265-EMBER
Encoded date                             : UTC 2022-06-30 04:42:43
Writing application                      : mkvmerge v65.0.0 ('Too Much') 64-bit
Writing library                          : libebml v1.4.2 + libmatroska v1.6.4
Cover                                    : Yes
Attachments                              : cover.jpg / AlegreyaSans-Black.ttf / Cronos-Pro.ttf / GandhiSans-Bold_0.otf / GandhiSans-BoldItalic_0.otf

Video
ID                                       : 1
Format                                   : HEVC
Format/Info                              : High Efficiency Video Coding
Format profile                           : Main 10@L4.1@High
Codec ID                                 : V_MPEGH/ISO/HEVC
Duration                                 : 23 min 40 s
Bit rate                                 : 3 052 kb/s
Width                                    : 1 920 pixels
Height                                   : 1 080 pixels
Display aspect ratio                     : 16:9
Frame rate mode                          : Constant
Frame rate                               : 23.976 (24000/1001) FPS
Color space                              : YUV
Chroma subsampling                       : 4:2:0
Bit depth                                : 10 bits
Bits/(Pixel*Frame)                       : 0.061
Stream size                              : 517 MiB (93%)
Title                                    : Presented By EMBER
Writing library                          : x265 2.4+14-bc0e9bd7c08f5ddc:[Windows][GCC 6.3.0][64 bit] 10bit: KG7x [x265.ru]
Encoding settings                        : cpuid=1173503 / frame-threads=3 / numa-pools=8 / wpp / no-pmode / no-pme / no-psnr / no-ssim / log-level=2 / input-csp=1 / input-res=1920x1080 / interlace=0 / total-frames=0 / level-idc=41 / high-tier=1 / uhd-bd=0 / ref=4 / no-allow-non-conformance / repeat-headers / annexb / aud / no-hrd / info / hash=0 / no-temporal-layers / no-open-gop / min-keyint=23 / keyint=250 / bframes=8 / b-adapt=2 / b-pyramid / bframe-bias=0 / rc-lookahead=60 / lookahead-slices=4 / scenecut=40 / no-intra-refresh / ctu=64 / min-cu-size=8 / no-rect / no-amp / max-tu-size=32 / tu-inter-depth=1 / tu-intra-depth=1 / limit-tu=0 / rdoq-level=2 / dynamic-rd=0.00 / no-ssim-rd / signhide / no-tskip / nr-intra=0 / nr-inter=0 / no-constrained-intra / no-strong-intra-smoothing / max-merge=5 / limit-refs=3 / limit-modes / me=3 / subme=5 / merange=57 / temporal-mvp / weightp / no-weightb / no-analyze-src-pics / deblock=0:-1 / no-sao / no-sao-non-deblock / rd=4 / no-early-skip / rskip / no-fast-intra / no-tskip-fast / no-cu-lossless / no-b-intra / rdpenalty=0 / psy-rd=1.50 / psy-rdoq=2.00 / no-rd-refine / analysis-mode=0 / no-lossless / cbqpoffs=0 / crqpoffs=0 / rc=crf / crf=20.0 / qcomp=0.60 / qpstep=4 / stats-write=0 / stats-read=0 / vbv-maxrate=50000 / vbv-bufsize=50000 / vbv-init=0.9 / crf-max=0.0 / crf-min=0.0 / ipratio=1.40 / pbratio=1.30 / aq-mode=3 / aq-strength=0.90 / no-cutree / zone-count=0 / no-strict-cbr / qg-size=32 / no-rc-grain / qpmax=69 / qpmin=0 / sar=0 / overscan=0 / videoformat=5 / range=0 / colorprim=1 / transfer=1 / colormatrix=1 / chromaloc=0 / display-window=0 / max-cll=0,0 / min-luma=0 / max-luma=1023 / log2-max-poc-lsb=8 / vui-timing-info / vui-hrd-info / slices=1 / opt-qp-pps / opt-ref-list-length-pps / no-multi-pass-opt-rps / scenecut-bias=0.05 / no-opt-cu-delta-qp / no-aq-motion / no-hdr / no-hdr-opt / no-dhdr10-opt / refine-level=5 / no-limit-sao / ctu-info=0
Default                                  : Yes
Forced                                   : No
Color range                              : Limited
Color primaries                          : BT.709
Transfer characteristics                 : BT.709
Matrix coefficients                      : BT.709

Audio
ID                                       : 2
Format                                   : AC-3
Format/Info                              : Audio Coding 3
Commercial name                          : Dolby Digital
Codec ID                                 : A_AC3
Duration                                 : 23 min 40 s
Bit rate mode                            : Constant
Bit rate                                 : 192 kb/s
Channel(s)                               : 2 channels
Channel layout                           : L R
Sampling rate                            : 48.0 kHz
Frame rate                               : 31.250 FPS (1536 SPF)
Compression mode                         : Lossy
Stream size                              : 32.5 MiB (6%)
Language                                 : Japanese
Service kind                             : Complete Main
Default                                  : Yes
Forced                                   : No

Text #1
ID                                       : 3
Format                                   : ASS
Codec ID                                 : S_TEXT/ASS
Codec ID/Info                            : Advanced Sub Station Alpha
Duration                                 : 23 min 34 s
Bit rate                                 : 10.5 kb/s
Count of elements                        : 10111
Compression mode                         : Lossless
Stream size                              : 1.78 MiB (0%)
Title                                    : Non-Honorific
Language                                 : English
Default                                  : Yes
Forced                                   : No

Text #2
ID                                       : 4
Format                                   : ASS
Codec ID                                 : S_TEXT/ASS
Codec ID/Info                            : Advanced Sub Station Alpha
Duration                                 : 23 min 34 s
Bit rate                                 : 10.5 kb/s
Count of elements                        : 10111
Compression mode                         : Lossless
Stream size                              : 1.78 MiB (0%)
Title                                    : Honorific
Language                                 : English
Default                                  : No
Forced                                   : No

Menu
00:00:00.000                             : Intro
00:01:16.993                             : OP
00:02:47.041                             : Part A
00:09:17.056                             : Part B
00:22:03.989                             : ED+Cast

Other Files in this Torrent
S01E04-Kongming Lights the Way [5BEA31C0].mkv
beta
Anime DDL+NZB mirror
Current Time: 24/06/2024 07:49



About/FAQs

Discord