File Size309.6 MB (324,643,556 bytes)
DownloadClickNUpload | Jheberg | MultiUp
  • BdUpload
  • DownAce
  • Fichier
  • FileCloud
  • Filerio
  • FilesCdn
  • IndiShare
  • Kbagi
  • Turbobit
  • UpToBox
  • Uppit
| OpenLoad | SolidFiles | ZippyShare
Sendspace: Part1, Part2
HashesCRC32: C7181D3F, MD5: CA6991EEBB8F9BC9A9593BBD5AE6FBFF, SHA1: 36BE7551428B8D77D68E1827BACFEDF40F5F505A, SHA256: AE17029D97CC829079436C9107297BD336D18C3CF01CBD96F410BB0CABD28C80, ED2K: C67276CCFF13F6BF304E0B51B0BAFFD6
Screenshots
screenshotscreenshotscreenshotscreenshotscreenshot
SubtitlesAll Attachments | und [ASS]
Additional Info
General
Unique ID                                : 127604002725795061011084948296446773295 (0x5FFFA31199FD5F26C73630B14A68082F)
Complete name                            : [RyRo]_Inazuma_Eleven_Orion_no_Kokuin_-_33v1_(720p)_[C7181D3F].mkv
Format                                   : Matroska
Format version                           : Version 4
File size                                : 310 MiB
Duration                                 : 22 min 54 s
Overall bit rate                         : 1 889 kb/s
Encoded date                             : UTC 2019-06-12 02:51:33
Writing application                      : mkvmerge v33.1.0 ('Primrose') 64-bit
Writing library                          : libebml v1.3.7 + libmatroska v1.5.0
Attachments                              : Candarabolditalic.ttf / Candaraitalic.ttf / Dfheic.TTC / Negatori.ttf / SWEETASCANDY.TTF / BRITANIC.TTF / CANDARA.ttf / Candarab.ttf / CandaraBOLD.ttf

Video
ID                                       : 1
Format                                   : AVC
Format/Info                              : Advanced Video Codec
Format profile                           : High@L4.1
Format settings                          : CABAC / 5 Ref Frames
Format settings, CABAC                   : Yes
Format settings, ReFrames                : 5 frames
Codec ID                                 : V_MPEG4/ISO/AVC
Duration                                 : 22 min 54 s
Bit rate                                 : 1 672 kb/s
Width                                    : 1 280 pixels
Height                                   : 720 pixels
Display aspect ratio                     : 16:9
Frame rate mode                          : Constant
Frame rate                               : 23.976 (24000/1001) FPS
Color space                              : YUV
Chroma subsampling                       : 4:2:0
Bit depth                                : 8 bits
Scan type                                : Progressive
Bits/(Pixel*Frame)                       : 0.076
Stream size                              : 274 MiB (89%)
Writing library                          : x264 core 146 r2538 121396c
Encoding settings                        : cabac=1 / ref=5 / deblock=1:-3:-3 / analyse=0x3:0x133 / me=umh / subme=8 / psy=1 / psy_rd=1.00:0.00 / mixed_ref=1 / me_range=16 / chroma_me=1 / trellis=2 / 8x8dct=1 / cqm=0 / deadzone=21,11 / fast_pskip=0 / chroma_qp_offset=-2 / threads=3 / lookahead_threads=1 / sliced_threads=0 / nr=0 / decimate=0 / interlaced=0 / bluray_compat=0 / constrained_intra=0 / bframes=5 / b_pyramid=2 / b_adapt=2 / b_bias=0 / direct=1 / weightb=1 / open_gop=0 / weightp=0 / keyint=240 / keyint_min=23 / scenecut=40 / intra_refresh=0 / rc_lookahead=40 / rc=crf / mbtree=1 / crf=21.0 / qcomp=0.60 / qpmin=0 / qpmax=69 / qpstep=4 / ip_ratio=1.40 / aq=1:1.00
Default                                  : Yes
Forced                                   : No

Audio
ID                                       : 2
Format                                   : AAC LC
Format/Info                              : Advanced Audio Codec Low Complexity
Codec ID                                 : A_AAC-2
Duration                                 : 22 min 54 s
Bit rate                                 : 192 kb/s
Channel(s)                               : 2 channels
Channel layout                           : L R
Sampling rate                            : 48.0 kHz
Frame rate                               : 46.875 FPS (1024 SPF)
Compression mode                         : Lossy
Delay relative to video                  : -83 ms
Stream size                              : 31.5 MiB (10%)
Language                                 : Japanese
Default                                  : Yes
Forced                                   : No

Text
ID                                       : 3
Format                                   : ASS
Codec ID                                 : S_TEXT/ASS
Codec ID/Info                            : Advanced Sub Station Alpha
Duration                                 : 22 min 51 s
Bit rate                                 : 159 b/s
Count of elements                        : 428
Compression mode                         : Lossless
Stream size                              : 26.7 KiB (0%)
Default                                  : Yes
Forced                                   : No
beta
Anime DDL+NZB mirror
Current Time: 18/11/2019 16:03



About/FAQs