[RyRo]_Inazuma_Eleven_Orion_no_Kokuin_-_18v1_(720p)_[F13F485A].mkv


File Size444.0 MB (465,567,752 bytes)
DownloadClickNUpload | Go4Up | Jheberg | MultiUp | OpenLoad | ZippyShare
Sendspace: Part1, Part2
HashesCRC32: F13F485A, MD5: 14321F0524E08E3FC14A521AD1CC44B4, SHA1: 4487063DED79FBC2F40FEBF5C06130C2C2DBAD13, SHA256: 60375BB7E1A2EBF063555ACF592F891A244F22AFD9AFE48D16A956DFA97BAB4B, ED2K: F3806B62BAC100FFE5F3F0FD53DDAA35
Screenshots
screenshotscreenshotscreenshotscreenshotscreenshot
SubtitlesAll Attachments | tgl [ASS]
Additional Info
General
Unique ID                                : 60470709893154758233043553415217665125 (0x2D7E3C2F21782F01748D7E459C91D465)
Complete name                            : [RyRo]_Inazuma_Eleven_Orion_no_Kokuin_-_18v1_(720p)_[F13F485A].mkv
Format                                   : Matroska
Format version                           : Version 4
File size                                : 444 MiB
Duration                                 : 22 min 55 s
Overall bit rate                         : 2 709 kb/s
Encoded date                             : UTC 2019-02-25 06:08:34
Writing application                      : mkvmerge v22.0.0 ('At The End Of The World') 64-bit
Writing library                          : libebml v1.3.5 + libmatroska v1.4.8

Video
ID                                       : 2
Format                                   : AVC
Format/Info                              : Advanced Video Codec
Format profile                           : High@L4.1
Format settings                          : CABAC / 5 Ref Frames
Format settings, CABAC                   : Yes
Format settings, ReFrames                : 5 frames
Codec ID                                 : V_MPEG4/ISO/AVC
Duration                                 : 22 min 54 s
Bit rate                                 : 2 514 kb/s
Width                                    : 1 280 pixels
Height                                   : 720 pixels
Display aspect ratio                     : 16:9
Frame rate mode                          : Constant
Frame rate                               : 23.976 (24000/1001) FPS
Color space                              : YUV
Chroma subsampling                       : 4:2:0
Bit depth                                : 8 bits
Scan type                                : Progressive
Bits/(Pixel*Frame)                       : 0.114
Stream size                              : 412 MiB (93%)
Writing library                          : x264 core 146 r2538 121396c
Encoding settings                        : cabac=1 / ref=5 / deblock=1:-3:-3 / analyse=0x3:0x133 / me=umh / subme=10 / psy=1 / psy_rd=1.00:0.00 / mixed_ref=1 / me_range=32 / chroma_me=1 / trellis=2 / 8x8dct=1 / cqm=0 / deadzone=21,11 / fast_pskip=0 / chroma_qp_offset=-2 / threads=3 / lookahead_threads=1 / sliced_threads=0 / nr=0 / decimate=0 / interlaced=0 / bluray_compat=0 / constrained_intra=0 / bframes=5 / b_pyramid=2 / b_adapt=2 / b_bias=0 / direct=1 / weightb=1 / open_gop=0 / weightp=0 / keyint=240 / keyint_min=23 / scenecut=40 / intra_refresh=0 / rc_lookahead=40 / rc=crf / mbtree=1 / crf=20.5 / qcomp=0.60 / qpmin=0 / qpmax=69 / qpstep=4 / ip_ratio=1.40 / aq=1:1.00
Default                                  : Yes
Forced                                   : No

Audio
ID                                       : 3
Format                                   : AAC LC
Format/Info                              : Advanced Audio Codec Low Complexity
Codec ID                                 : A_AAC-2
Duration                                 : 22 min 54 s
Bit rate                                 : 192 kb/s
Channel(s)                               : 2 channels
Channel layout                           : L R
Sampling rate                            : 48.0 kHz
Frame rate                               : 46.875 FPS (1024 SPF)
Compression mode                         : Lossy
Delay relative to video                  : -83 ms
Stream size                              : 31.5 MiB (7%)
Language                                 : Japanese
Default                                  : Yes
Forced                                   : No

Text
ID                                       : 1
Format                                   : ASS
Codec ID                                 : S_TEXT/ASS
Codec ID/Info                            : Advanced Sub Station Alpha
Duration                                 : 22 min 51 s
Bit rate                                 : 144 b/s
Count of elements                        : 419
Compression mode                         : Lossless
Stream size                              : 24.2 KiB (0%)
Language                                 : Tagalog
Default                                  : Yes
Forced                                   : No

Other Files in this Torrent
[RyRo]_Inazuma_Eleven_Orion_no_Kokuin_-_18v1_(720p)_[F13F485A].mkv
beta
Anime DDL+NZB mirror
Current Time: 06/12/2019 06:33



About/FAQs