Rozen Maiden Overture - 02 [x264-AC3][DVD][Sakura][C-W][01888E6A].mkv


File Size204.2 MB (214,165,656 bytes)
DownloadEmbedUpload
HashesCRC32: 01888E6A, MD5: 5103097FD680A468B828B7E2394903A1, SHA1: 14C3DA84C15432D90E910BA4EB440BCCE03D77CB, SHA256: ECF70F18E9A2C713CC2BBA5CF0DB8F3C94233B0772F0A57A4642723D98E69D50, ED2K: BB458C0CE011DFDF9D56D2CFFCD9D3C2
Screenshots
screenshotscreenshotscreenshotscreenshotscreenshot
Additional Info
General
Unique ID                        : 150281613540198937137576151286131948644 (0x710F2F9B2057227E02B889745CEB7C64)
Complete name                    : Rozen Maiden Overture - 02 [x264-AC3][DVD][Sakura][C-W][01888E6A].mkv
Format                           : Matroska
File size                        : 204 MiB
Duration                         : 25mn 12s
Overall bit rate                 : 1 133 Kbps
Writing application              : HandBrake 4405svn
Writing library                  : libmkv 0.6.5

Video
ID                               : 1
Format                           : AVC
Format/Info                      : Advanced Video Codec
Format profile                   : High@L3.0
Format settings, CABAC           : Yes
Format settings, ReFrames        : 4 frames
Codec ID                         : V_MPEG4/ISO/AVC
Duration                         : 25mn 12s
Bit rate                         : 663 Kbps
Width                            : 720 pixels
Height                           : 480 pixels
Display aspect ratio             : 16:9
Original display aspect ratio    : 16:9
Frame rate mode                  : Variable
Frame rate                       : 29.970 fps
Standard                         : NTSC
Color space                      : YUV
Chroma subsampling               : 4:2:0
Bit depth                        : 8 bits
Scan type                        : Progressive
Bits/(Pixel*Frame)               : 0.064
Stream size                      : 119 MiB (58%)
Writing library                  : x264 core 119
Encoding settings                : cabac=1 / ref=5 / deblock=1:2:2 / analyse=0x3:0x133 / me=umh / subme=9 / psy=1 / psy_rd=1.00:1.00 / mixed_ref=1 / me_range=16 / chroma_me=1 / trellis=1 / 8x8dct=1 / cqm=0 / deadzone=21,11 / fast_pskip=0 / chroma_qp_offset=-4 / threads=6 / sliced_threads=0 / nr=150 / decimate=1 / interlaced=0 / bluray_compat=0 / constrained_intra=0 / bframes=6 / b_pyramid=1 / b_adapt=1 / b_bias=0 / direct=3 / weightb=1 / open_gop=0 / weightp=2 / keyint=300 / keyint_min=30 / scenecut=40 / intra_refresh=0 / rc_lookahead=40 / rc=crf / mbtree=1 / crf=20.0 / qcomp=0.60 / qpmin=3 / qpmax=69 / qpstep=4 / ip_ratio=1.40 / aq=1:1.00
Language                         : English
Color primaries                  : BT.601-6 525, BT.1358 525, BT.1700 NTSC, SMPTE 170M
Transfer characteristics         : BT.709-5, BT.1361
Matrix coefficients              : BT.601-6 525, BT.1358 525, BT.1700 NTSC, SMPTE 170M

Audio #1
ID                               : 2
Format                           : AC-3
Format/Info                      : Audio Coding 3
Mode extension                   : CM (complete main)
Codec ID                         : A_AC3
Duration                         : 25mn 12s
Bit rate mode                    : Constant
Bit rate                         : 224 Kbps
Channel(s)                       : 2 channels
Channel positions                : Front: L R
Sampling rate                    : 48.0 KHz
Bit depth                        : 16 bits
Compression mode                 : Lossy
Stream size                      : 40.4 MiB (20%)
Language                         : English

Audio #2
ID                               : 3
Format                           : AC-3
Format/Info                      : Audio Coding 3
Mode extension                   : CM (complete main)
Codec ID                         : A_AC3
Duration                         : 25mn 12s
Bit rate mode                    : Constant
Bit rate                         : 224 Kbps
Channel(s)                       : 2 channels
Channel positions                : Front: L R
Sampling rate                    : 48.0 KHz
Bit depth                        : 16 bits
Compression mode                 : Lossy
Stream size                      : 40.4 MiB (20%)
Language                         : Japanese

Text #1
ID                               : 4
Format                           : VobSub
Codec ID                         : S_VOBSUB
Codec ID/Info                    : The same subtitle format used on DVDs
Language                         : English

Text #2
ID                               : 5
Format                           : VobSub
Codec ID                         : S_VOBSUB
Codec ID/Info                    : The same subtitle format used on DVDs
Language                         : English

Menu
00:00:00.000                     : Chapter  1
00:01:31.057                     : Chapter  2
00:10:38.904                     : Chapter  3
00:22:10.495                     : Chapter  4
00:23:41.386                     : Chapter  5
00:25:11.576                     : Chapter  6

Other Files in this Torrent
Rozen Maiden Overture - 02 [x264-AC3][DVD][Sakura][C-W][01888E6A].mkv
beta
Anime DDL+NZB mirror
Current Time: 05/07/2022 12:02



About/FAQs

Discord