Rozen Maiden Overture - 01 [x264-AC3][DVD][Sakura][C-W][5E9544E5].mkv


File Size188.5 MB (197,632,816 bytes)
DownloadEmbedUpload
HashesCRC32: 5E9544E5, MD5: 064687291F3246C957395AF4FCE4BE34, SHA1: DF9DBE74C0B4A4B2868AC6CA5FB2C1D325CCC6FE, SHA256: 2BC6A408C3AF3E31845CC766197C75BD9B26DAE6C07E96B0BCEAA6289DBA811E, ED2K: A0B74EDDAEC9F386F224E5DAA8DB0D08
Screenshots
screenshotscreenshotscreenshotscreenshotscreenshot
Additional Info
General
Unique ID                        : 94549248808452129384734564000188609227 (0x472185E00C4C0DEC46CE034DC0A832CB)
Complete name                    : Rozen Maiden Overture - 01 [x264-AC3][DVD][Sakura][C-W][5E9544E5].mkv
Format                           : Matroska
File size                        : 188 MiB
Duration                         : 25mn 42s
Overall bit rate                 : 1 025 Kbps
Writing application              : HandBrake 4405svn
Writing library                  : libmkv 0.6.5

Video
ID                               : 1
Format                           : AVC
Format/Info                      : Advanced Video Codec
Format profile                   : High@L3.0
Format settings, CABAC           : Yes
Format settings, ReFrames        : 4 frames
Codec ID                         : V_MPEG4/ISO/AVC
Duration                         : 25mn 42s
Bit rate                         : 557 Kbps
Width                            : 718 pixels
Height                           : 480 pixels
Display aspect ratio             : 16:9
Original display aspect ratio    : 16:9
Frame rate mode                  : Variable
Frame rate                       : 29.970 fps
Color space                      : YUV
Chroma subsampling               : 4:2:0
Bit depth                        : 8 bits
Scan type                        : Progressive
Bits/(Pixel*Frame)               : 0.054
Stream size                      : 102 MiB (54%)
Writing library                  : x264 core 119
Encoding settings                : cabac=1 / ref=5 / deblock=1:2:2 / analyse=0x3:0x133 / me=umh / subme=9 / psy=1 / psy_rd=1.00:1.00 / mixed_ref=1 / me_range=16 / chroma_me=1 / trellis=1 / 8x8dct=1 / cqm=0 / deadzone=21,11 / fast_pskip=0 / chroma_qp_offset=-4 / threads=6 / sliced_threads=0 / nr=150 / decimate=1 / interlaced=0 / bluray_compat=0 / constrained_intra=0 / bframes=6 / b_pyramid=1 / b_adapt=1 / b_bias=0 / direct=3 / weightb=1 / open_gop=0 / weightp=2 / keyint=300 / keyint_min=30 / scenecut=40 / intra_refresh=0 / rc_lookahead=40 / rc=crf / mbtree=1 / crf=20.0 / qcomp=0.60 / qpmin=3 / qpmax=69 / qpstep=4 / ip_ratio=1.40 / aq=1:1.00
Language                         : English
Color primaries                  : BT.601-6 525, BT.1358 525, BT.1700 NTSC, SMPTE 170M
Transfer characteristics         : BT.709-5, BT.1361
Matrix coefficients              : BT.601-6 525, BT.1358 525, BT.1700 NTSC, SMPTE 170M

Audio #1
ID                               : 2
Format                           : AC-3
Format/Info                      : Audio Coding 3
Mode extension                   : CM (complete main)
Codec ID                         : A_AC3
Duration                         : 25mn 42s
Bit rate mode                    : Constant
Bit rate                         : 224 Kbps
Channel(s)                       : 2 channels
Channel positions                : Front: L R
Sampling rate                    : 48.0 KHz
Bit depth                        : 16 bits
Compression mode                 : Lossy
Stream size                      : 41.2 MiB (22%)
Language                         : English

Audio #2
ID                               : 3
Format                           : AC-3
Format/Info                      : Audio Coding 3
Mode extension                   : CM (complete main)
Codec ID                         : A_AC3
Duration                         : 25mn 42s
Bit rate mode                    : Constant
Bit rate                         : 224 Kbps
Channel(s)                       : 2 channels
Channel positions                : Front: L R
Sampling rate                    : 48.0 KHz
Bit depth                        : 16 bits
Compression mode                 : Lossy
Stream size                      : 41.2 MiB (22%)
Language                         : Japanese

Text #1
ID                               : 4
Format                           : VobSub
Codec ID                         : S_VOBSUB
Codec ID/Info                    : The same subtitle format used on DVDs
Language                         : English

Text #2
ID                               : 5
Format                           : VobSub
Codec ID                         : S_VOBSUB
Codec ID/Info                    : The same subtitle format used on DVDs
Language                         : English

Menu
00:00:00.000                     : Chapter  1
00:01:31.057                     : Chapter  2
00:11:33.959                     : Chapter  3
00:22:10.896                     : Chapter  4
00:23:40.485                     : Chapter  5
00:24:11.450                     : Chapter  6
00:25:41.606                     : Chapter  7

Other Files in this Torrent
Rozen Maiden Overture - 01 [x264-AC3][DVD][Sakura][C-W][5E9544E5].mkv
beta
Anime DDL+NZB mirror
Current Time: 05/07/2022 13:30



About/FAQs

Discord