[RightShiftBy2] One Punch Man - 06 [720p][8BC70426].mp4


File Size412.4 MB (432,406,467 bytes)
DownloadGo4Up | Jheberg | MultiUp | SolidFiles
Sendspace: Part1, Part2
HashesCRC32: 8BC70426, MD5: A09B717A5B323ADC913F2E8AE9C03521, SHA1: 7D5F793B5FB4FBC7705337FAB047E914340F8EC3, SHA256: CF5419376EF5597BF80263D2B5FB8DE2094BFA9530BC46CD6ACCF7A424D55C8F, ED2K: A00694964B315D7CFAC52704E2C9C9A7
Screenshots
screenshotscreenshotscreenshotscreenshotscreenshot
Additional Info
General
Complete name                            : [RightShiftBy2] One Punch Man - 06 [720p][8BC70426].mp4
Format                                   : MPEG-4
Format profile                           : Base Media / Version 2
Codec ID                                 : mp42
File size                                : 412 MiB
Duration                                 : 24mn 20s
Overall bit rate mode                    : Variable
Overall bit rate                         : 2 369 Kbps
Encoded date                             : UTC 2015-12-01 06:15:06
Tagged date                              : UTC 2015-12-01 06:15:06

Video
ID                                       : 1
Format                                   : AVC
Format/Info                              : Advanced Video Codec
Format profile                           : High@L4.1
Format settings, CABAC                   : Yes
Format settings, ReFrames                : 8 frames
Codec ID                                 : avc1
Codec ID/Info                            : Advanced Video Coding
Duration                                 : 24mn 20s
Bit rate                                 : 2 176 Kbps
Maximum bit rate                         : 11.4 Mbps
Width                                    : 1 280 pixels
Height                                   : 720 pixels
Display aspect ratio                     : 16:9
Frame rate mode                          : Constant
Frame rate                               : 23.976 fps
Color space                              : YUV
Chroma subsampling                       : 4:2:0
Bit depth                                : 8 bits
Scan type                                : Progressive
Bits/(Pixel*Frame)                       : 0.099
Stream size                              : 379 MiB (92%)
Writing library                          : x264 core 142
Encoding settings                        : cabac=1 / ref=9 / deblock=1:-1:-1 / analyse=0x3:0x133 / me=umh / subme=10 / psy=1 / fade_compensate=0.65 / psy_rd=0.79:0.00 / mixed_ref=1 / me_range=24 / chroma_me=1 / trellis=2 / 8x8dct=1 / cqm=0 / deadzone=21,11 / fast_pskip=1 / chroma_qp_offset=-2 / threads=2 / lookahead_threads=1 / sliced_threads=0 / nr=0 / decimate=1 / interlaced=0 / bluray_compat=0 / stitchable=1 / constrained_intra=0 / fgo=0 / bframes=3 / b_pyramid=1 / b_adapt=2 / b_bias=0 / direct=3 / weightb=1 / open_gop=0 / weightp=2 / keyint=250 / keyint_min=23 / scenecut=40 / intra_refresh=0 / rc_lookahead=60 / rc=crf / mbtree=1 / crf=16.5000 / qcomp=0.77 / qpmin=0:0:0 / qpmax=69:69:69 / qpstep=4 / vbv_maxrate=30000 / vbv_bufsize=40000 / crf_max=0.0 / nal_hrd=none / filler=0 / ip_ratio=1.40 / wtf=-1.80 / aq=3:0.87 / aq-sensitivity=10.00 / aq-factor=1.00:1.00:1.00 / aq2=0 / aq3=0
Encoded date                             : UTC 2015-12-01 06:15:06
Tagged date                              : UTC 2015-12-01 06:15:06
Matrix coefficients                      : BT.709
Color range                              : Limited

Audio
ID                                       : 2
Format                                   : AAC
Format/Info                              : Advanced Audio Codec
Format profile                           : LC
Codec ID                                 : 40
Duration                                 : 24mn 20s
Bit rate mode                            : Variable
Bit rate                                 : 192 Kbps
Channel(s)                               : 2 channels
Channel positions                        : Front: L R
Sampling rate                            : 48.0 KHz
Compression mode                         : Lossy
Stream size                              : 32.8 MiB (8%)
Encoded date                             : UTC 2015-12-01 06:15:06
Tagged date                              : UTC 2015-12-01 06:15:06

Menu
00:00:00.033                             : Prologue
00:03:09.000                             : Opening
00:04:39.050                             : Part A
00:10:09.040                             : Part B
00:21:18.080                             : Ending
00:22:48.050                             : Epilogue
00:24:00.040                             : Preview
beta
Anime DDL+NZB mirror
Current Time: 27/09/2022 18:11



About/FAQs

Discord