[RH] Violet Evergarden - NCOP (BDRip Hi444 720p AAC) [ACFBFD6E].mkv


File Size30.10 MB (31,560,688 bytes)
DownloadClickNUpload | DiskoKosmiko | Go4Up | Jheberg | MultiUp | OpenLoad | Sendspace | SolidFiles | ZippyShare
Encrypted DownloadDirect
Password:
HashesCRC32: ACFBFD6E, MD5: B35D843C2C4ABD4062B5159101C52BAB, SHA1: BA1C9994046A1DE72B6F8913BB2420F177E2D45A, SHA256: B3DE10C1772A53DF109D9851FC48A9004F2CF72A296CD4B24377325A732B62C9, ED2K: DD13815D960FC928DEF6FD7DFB16AAB9
Screenshots
screenshotscreenshot
SubtitlesAll Attachments | English [eng, ASS]
Additional Info
General
Unique ID                                : 144295375791408867871257153522757584417 (0x6C8E474C419AE867FA9B74B6E5D0C621)
Complete name                            : [RH] Violet Evergarden - NCOP (BDRip Hi444 720p AAC) [ACFBFD6E].mkv
Format                                   : Matroska
Format version                           : Version 4 / Version 2
File size                                : 30.1 MiB
Duration                                 : 1 min 30 s
Overall bit rate                         : 2 793 kb/s
Movie name                               : [RH] Violet Evergarden - NCOP [BDRip] [Hi444] [720p]
Encoded date                             : UTC 2018-05-30 05:46:22
Writing application                      : mkvmerge v22.0.0 ('At The End Of The World') 64-bit
Writing library                          : libebml v1.3.5 + libmatroska v1.4.8
Attachments                              : IwaOMinPro-Bd-Fate.ttf

Video
ID                                       : 1
Format                                   : AVC
Format/Info                              : Advanced Video Codec
Format profile                           : High 4:4:4 Predictive@L5
Format settings, CABAC                   : Yes
Format settings, ReFrames                : 16 frames
Codec ID                                 : V_MPEG4/ISO/AVC
Duration                                 : 1 min 30 s
Bit rate                                 : 2 399 kb/s
Width                                    : 1 280 pixels
Height                                   : 720 pixels
Display aspect ratio                     : 16:9
Frame rate mode                          : Constant
Frame rate                               : 23.976 (24000/1001) FPS
Color space                              : YUV
Chroma subsampling                       : 4:4:4
Bit depth                                : 10 bits
Scan type                                : Progressive
Bits/(Pixel*Frame)                       : 0.109
Stream size                              : 25.8 MiB (86%)
Title                                    : Hi444 720p h.264
Writing library                          : x264 core 155 r2901 7d0ff22
Encoding settings                        : cabac=1 / ref=16 / deblock=1:-2:-2 / analyse=0x1:0x111 / me=umh / subme=10 / psy=1 / psy_rd=0.80:0.00 / mixed_ref=1 / me_range=32 / chroma_me=1 / trellis=2 / 8x8dct=0 / cqm=0 / deadzone=21,11 / fast_pskip=0 / chroma_qp_offset=1 / threads=9 / lookahead_threads=2 / sliced_threads=0 / nr=0 / decimate=0 / interlaced=0 / bluray_compat=0 / constrained_intra=0 / bframes=16 / b_pyramid=2 / b_adapt=2 / b_bias=0 / direct=3 / weightb=1 / open_gop=0 / weightp=2 / keyint=240 / keyint_min=24 / scenecut=40 / intra_refresh=0 / rc_lookahead=48 / rc=crf / mbtree=1 / crf=14.0 / qcomp=0.70 / qpmin=0 / qpmax=81 / qpstep=4 / ip_ratio=1.40 / aq=3:0.80
Language                                 : Japanese
Default                                  : Yes
Forced                                   : No
Color range                              : Limited
Matrix coefficients                      : BT.709

Audio
ID                                       : 2
Format                                   : AAC
Format/Info                              : Advanced Audio Codec
Format profile                           : LC
Codec ID                                 : A_AAC
Duration                                 : 1 min 30 s
Bit rate                                 : 330 kb/s
Channel(s)                               : 2 channels
Channel positions                        : Front: L R
Sampling rate                            : 48.0 kHz
Frame rate                               : 46.875 FPS (1024 spf)
Compression mode                         : Lossy
Stream size                              : 3.56 MiB (12%)
Title                                    : 2.0 AAC
Language                                 : Japanese
Default                                  : Yes
Forced                                   : No

Text
ID                                       : 3
Format                                   : ASS
Codec ID                                 : S_TEXT/ASS
Codec ID/Info                            : Advanced Sub Station Alpha
Duration                                 : 1 min 25 s
Bit rate                                 : 481 b/s
Count of elements                        : 60
Compression mode                         : Lossless
Stream size                              : 5.03 KiB (0%)
Title                                    : English
Language                                 : English
Default                                  : Yes
Forced                                   : No

Other Files in this Torrent
[RH] Violet Evergarden - NCOP (BDRip Hi444 720p AAC) [ACFBFD6E].mkv
beta
Anime DDL+NZB mirror
Current Time: 01/04/2020 22:59



About/FAQs