[RH] Satsuriku no Tenshi - 07 (WEB Dual Audio 720p) [5C8623CA].mkv


File Size388.7 MB (407,578,178 bytes)
DownloadClickNUpload | Go4Up | Jheberg | MultiUp | OpenLoad | SolidFiles | ZippyShare
Sendspace: Part1, Part2
Encrypted DownloadDirect
Password:
HashesCRC32: 5C8623CA, MD5: 9875A21F387A45B7617D6B2E187EE726, SHA1: A849B0C96EACF5754C6726A251DD4C8C2A603EA3, SHA256: BC6529A33C0B516474BAE53529116524B5B627EDF8E75AD504AB39F3F50819E1, ED2K: FD0F589BCCC82050FEC5743055748149
Screenshots
screenshotscreenshotscreenshotscreenshotscreenshot
SubtitlesAll Attachments | Signs & Songs [eng, ASS], Dialogue [eng, ASS]
Additional Info
General
Unique ID                                : 325710134204680858411600509548535618088 (0xF5097D74EF0CC390B5F9A9409E7E1A28)
Complete name                            : [RH] Satsuriku no Tenshi - 07 (WEB Dual Audio 720p) [5C8623CA].mkv
Format                                   : Matroska
Format version                           : Version 4 / Version 2
File size                                : 389 MiB
Duration                                 : 23 min 40 s
Overall bit rate                         : 2 296 kb/s
Movie name                               : [RH] Satsuriku no Tenshi - 07 [WEB Dual Audio Hi444 720p AAC]
Encoded date                             : UTC 2018-09-15 11:24:47
Writing application                      : mkvmerge v26.0.0 ('In The Game') 64-bit
Writing library                          : libebml v1.3.6 + libmatroska v1.4.9
Attachments                              : BLUE HIGHWAY LINOCUT.TTF / Bohemia.TTF / RH-Sans.ttf / RH-Sans-Italic.ttf / STREET CORNER.TTF

Video
ID                                       : 1
Format                                   : AVC
Format/Info                              : Advanced Video Codec
Format profile                           : High 4:4:4 Predictive@L5
Format settings, CABAC                   : Yes
Format settings, ReFrames                : 16 frames
Codec ID                                 : V_MPEG4/ISO/AVC
Duration                                 : 23 min 39 s
Bit rate                                 : 1 901 kb/s
Width                                    : 1 280 pixels
Height                                   : 720 pixels
Display aspect ratio                     : 16:9
Frame rate mode                          : Constant
Frame rate                               : 23.976 (24000/1001) FPS
Color space                              : YUV
Chroma subsampling                       : 4:4:4
Bit depth                                : 10 bits
Scan type                                : Progressive
Bits/(Pixel*Frame)                       : 0.086
Stream size                              : 322 MiB (83%)
Title                                    : Hi444 720p h.264
Writing library                          : x264 core 155 r2901 7d0ff22
Encoding settings                        : cabac=1 / ref=16 / deblock=1:-1:-1 / analyse=0x1:0x111 / me=umh / subme=10 / psy=1 / psy_rd=0.70:0.00 / mixed_ref=1 / me_range=32 / chroma_me=1 / trellis=2 / 8x8dct=0 / cqm=0 / deadzone=21,11 / fast_pskip=0 / chroma_qp_offset=1 / threads=9 / lookahead_threads=2 / sliced_threads=0 / nr=0 / decimate=0 / interlaced=0 / bluray_compat=0 / constrained_intra=0 / bframes=16 / b_pyramid=2 / b_adapt=2 / b_bias=0 / direct=3 / weightb=1 / open_gop=0 / weightp=2 / keyint=240 / keyint_min=24 / scenecut=40 / intra_refresh=0 / rc_lookahead=48 / rc=crf / mbtree=1 / crf=16.0 / qcomp=0.70 / qpmin=0 / qpmax=81 / qpstep=4 / ip_ratio=1.40 / aq=3:0.75
Language                                 : Japanese
Default                                  : Yes
Forced                                   : No
Color range                              : Limited
Matrix coefficients                      : BT.709

Audio #1
ID                                       : 2
Format                                   : AAC
Format/Info                              : Advanced Audio Codec
Format profile                           : LC
Codec ID                                 : A_AAC
Duration                                 : 23 min 39 s
Bit rate                                 : 253 kb/s
Channel(s)                               : 2 channels
Channel positions                        : Front: L R
Sampling rate                            : 48.0 kHz
Frame rate                               : 46.875 FPS (1024 spf)
Compression mode                         : Lossy
Stream size                              : 42.9 MiB (11%)
Title                                    : 2.0 AAC
Language                                 : English
Default                                  : Yes
Forced                                   : No

Audio #2
ID                                       : 3
Format                                   : AAC
Format/Info                              : Advanced Audio Codec
Format profile                           : LC
Codec ID                                 : A_AAC
Duration                                 : 23 min 40 s
Bit rate                                 : 128 kb/s
Channel(s)                               : 2 channels
Channel positions                        : Front: L R
Sampling rate                            : 44.1 kHz
Frame rate                               : 43.066 FPS (1024 spf)
Compression mode                         : Lossy
Stream size                              : 21.7 MiB (6%)
Title                                    : 2.0 AAC
Language                                 : Japanese
Default                                  : No
Forced                                   : No

Text #1
ID                                       : 4
Format                                   : ASS
Codec ID                                 : S_TEXT/ASS
Codec ID/Info                            : Advanced Sub Station Alpha
Duration                                 : 21 min 0 s
Bit rate                                 : 3 120 b/s
Count of elements                        : 3533
Compression mode                         : Lossless
Stream size                              : 480 KiB (0%)
Title                                    : Signs & Songs
Language                                 : English
Default                                  : Yes
Forced                                   : No

Text #2
ID                                       : 5
Format                                   : ASS
Codec ID                                 : S_TEXT/ASS
Codec ID/Info                            : Advanced Sub Station Alpha
Duration                                 : 23 min 21 s
Bit rate                                 : 2 875 b/s
Count of elements                        : 3783
Compression mode                         : Lossless
Stream size                              : 492 KiB (0%)
Title                                    : Dialogue
Language                                 : English
Default                                  : No
Forced                                   : No

Menu
00:00:00.000                             : en:Prologue
00:02:09.964                             : en:OP
00:03:39.970                             : en:Part A
00:11:58.928                             : en:Part B
00:22:04.450                             : en:ED
00:23:34.957                             : en:Preview

Other Files in this Torrent
[RH] Satsuriku no Tenshi - 07 (WEB Dual Audio 720p) [5C8623CA].mkv
beta
Anime DDL+NZB mirror
Current Time: 04/04/2020 20:48



About/FAQs