File Size753.6 MB (790,172,240 bytes)
DownloadClickNUpload | DiskoKosmiko | Go4Up | Jheberg | MultiUp
  • BdUpload
  • DownAce
  • Fichier
  • FileCloud
  • Filerio
  • FilesCdn
  • IndiShare
  • Kbagi
  • Turbobit
  • UpToBox
  • Uppit
| OpenLoad
Sendspace: Part1, Part2, Part3
SolidFiles: Part1, Part2
ZippyShare: Part1, Part2
Encrypted DownloadDirect
Password:
HashesCRC32: 8C2D4CF0, MD5: 32AE5ACCD35B6AC7552C47478EE4E8CC, SHA1: E15A7635AE12DECFDB3AF11AA3A5B5BC07E0A922, SHA256: 3D7A8F16A780AA36ACC602318D862895A4D1F4D5EA6EB48F48F539700B761583, ED2K: 656AAB12AC5347A72FCEC53DE826AD61
Screenshots
screenshotscreenshotscreenshotscreenshotscreenshot
SubtitlesAll Attachments | Signs & Songs [eng, ASS], Dialogue [eng, ASS]
Additional Info
General
Unique ID                                : 89906754067621761988390462619456654451 (0x43A369366365C8187765C88097584C73)
Complete name                            : [RH] Free! Dive to the Future - 05 (WEB Dual Audio 1080p) [8C2D4CF0].mkv
Format                                   : Matroska
Format version                           : Version 4 / Version 2
File size                                : 754 MiB
Duration                                 : 23 min 40 s
Overall bit rate                         : 4 451 kb/s
Movie name                               : [RH] Free! Dive to the Future - 05 [WEB Dual Audio Hi10 1080p AAC]
Encoded date                             : UTC 2018-08-30 21:08:17
Writing application                      : mkvmerge v26.0.0 ('In The Game') 64-bit
Writing library                          : libebml v1.3.6 + libmatroska v1.4.9
Attachments                              : AIRSI.TTF / Arial Rounded MT.ttf / CrayonHand-Bold.ttf / daunpenh.ttf / EFFLB.TTF / FRABK.TTF / gm.ttf / MerriweatherSans-Bold.ttf / MrsEavRm.TTF / Quick Menu Boards.ttf / RH-Sans.ttf / RH-Sans-Italic.ttf

Video
ID                                       : 1
Format                                   : AVC
Format/Info                              : Advanced Video Codec
Format profile                           : High 10@L5.1
Format settings, CABAC                   : Yes
Format settings, ReFrames                : 16 frames
Codec ID                                 : V_MPEG4/ISO/AVC
Duration                                 : 23 min 40 s
Bit rate                                 : 4 054 kb/s
Width                                    : 1 920 pixels
Height                                   : 1 080 pixels
Display aspect ratio                     : 16:9
Frame rate mode                          : Constant
Frame rate                               : 23.976 (24000/1001) FPS
Color space                              : YUV
Chroma subsampling                       : 4:2:0
Bit depth                                : 10 bits
Scan type                                : Progressive
Bits/(Pixel*Frame)                       : 0.082
Stream size                              : 686 MiB (91%)
Title                                    : Hi10 1080p h.264
Writing library                          : x264 core 155 r2901 7d0ff22
Encoding settings                        : cabac=1 / ref=16 / deblock=1:-1:-1 / analyse=0x3:0x113 / me=umh / subme=10 / psy=1 / psy_rd=0.70:0.00 / mixed_ref=1 / me_range=32 / chroma_me=1 / trellis=2 / 8x8dct=1 / cqm=0 / deadzone=21,11 / fast_pskip=0 / chroma_qp_offset=-2 / threads=9 / lookahead_threads=2 / sliced_threads=0 / nr=0 / decimate=0 / interlaced=0 / bluray_compat=0 / constrained_intra=0 / bframes=16 / b_pyramid=2 / b_adapt=2 / b_bias=0 / direct=3 / weightb=1 / open_gop=0 / weightp=2 / keyint=240 / keyint_min=24 / scenecut=40 / intra_refresh=0 / rc_lookahead=48 / rc=crf / mbtree=1 / crf=16.0 / qcomp=0.70 / qpmin=0 / qpmax=81 / qpstep=4 / ip_ratio=1.40 / aq=3:0.80
Language                                 : Japanese
Default                                  : Yes
Forced                                   : No
Color range                              : Limited
Matrix coefficients                      : BT.709

Audio #1
ID                                       : 2
Format                                   : AAC
Format/Info                              : Advanced Audio Codec
Format profile                           : LC
Codec ID                                 : A_AAC
Duration                                 : 23 min 40 s
Bit rate                                 : 253 kb/s
Channel(s)                               : 2 channels
Channel positions                        : Front: L R
Sampling rate                            : 48.0 kHz
Frame rate                               : 46.875 FPS (1024 spf)
Compression mode                         : Lossy
Stream size                              : 42.9 MiB (6%)
Title                                    : 2.0 AAC
Language                                 : English
Default                                  : Yes
Forced                                   : No

Audio #2
ID                                       : 3
Format                                   : AAC
Format/Info                              : Advanced Audio Codec
Format profile                           : LC
Codec ID                                 : A_AAC
Duration                                 : 23 min 40 s
Bit rate                                 : 128 kb/s
Channel(s)                               : 2 channels
Channel positions                        : Front: L R
Sampling rate                            : 44.1 kHz
Frame rate                               : 43.066 FPS (1024 spf)
Compression mode                         : Lossy
Stream size                              : 21.7 MiB (3%)
Title                                    : 2.0 AAC
Language                                 : Japanese
Default                                  : No
Forced                                   : No

Text #1
ID                                       : 4
Format                                   : ASS
Codec ID                                 : S_TEXT/ASS
Codec ID/Info                            : Advanced Sub Station Alpha
Duration                                 : 23 min 1 s
Bit rate                                 : 169 b/s
Count of elements                        : 226
Compression mode                         : Lossless
Stream size                              : 28.6 KiB (0%)
Title                                    : Signs & Songs
Language                                 : English
Default                                  : Yes
Forced                                   : No

Text #2
ID                                       : 5
Format                                   : ASS
Codec ID                                 : S_TEXT/ASS
Codec ID/Info                            : Advanced Sub Station Alpha
Duration                                 : 23 min 36 s
Bit rate                                 : 270 b/s
Count of elements                        : 599
Compression mode                         : Lossless
Stream size                              : 46.8 KiB (0%)
Title                                    : Dialogue
Language                                 : English
Default                                  : No
Forced                                   : No

Menu
00:00:00.000                             : en:Prologue
00:01:06.984                             : en:OP
00:02:37.032                             : en:Episode
00:22:02.990                             : en:Preview
00:22:12.583                             : en:ED
beta
Anime DDL+NZB mirror
Current Time: 05/04/2020 05:52



About/FAQs