[RH] Free! Dive to the Future - 01 (WEB Dual Audio 1080p) [7F052AB6].mkv


File Size816.6 MB (856,280,199 bytes)
DownloadClickNUpload | Jheberg | MultiUp | OpenLoad
Sendspace: Part1, Part2, Part3
SolidFiles: Part1, Part2
ZippyShare: Part1, Part2
HashesCRC32: 7F052AB6, MD5: E1A2D2F5433BACF6BE6BD5A5D6B8768A, SHA1: 049118EC2B6AA993C0A09D7B92480012106B41E4, SHA256: 14175D6091B68774E362710B24DCFAA4B803F14C529D462B12444B6571051106, ED2K: 71C4EE69F9A74AFFDFE0C8E6CA88A999
Screenshots
screenshotscreenshotscreenshotscreenshotscreenshot
SubtitlesAll Attachments | Signs & Songs [eng, ASS], Dialogue [eng, ASS]
Additional Info
General
Unique ID                                : 121689704606492706182633276045947307435 (0x5B8C95A882E3A1593E70DA26F5CC05AB)
Complete name                            : [RH] Free! Dive to the Future - 01 (WEB Dual Audio 1080p) [7F052AB6].mkv
Format                                   : Matroska
Format version                           : Version 4 / Version 2
File size                                : 817 MiB
Duration                                 : 23 min 40 s
Overall bit rate                         : 4 824 kb/s
Movie name                               : [RH] Free! Dive to the Future - 01 [WEB Dual Audio Hi10 1080p AAC]
Encoded date                             : UTC 2018-08-03 10:18:52
Writing application                      : mkvmerge v22.0.0 ('At The End Of The World') 64-bit
Writing library                          : libebml v1.3.5 + libmatroska v1.4.8
Attachments                              : daunpenh.ttf / DeBorstel Brush-Reduced.ttf / DRY BRUSH.TTF / EFFLB.TTF / FRABK.TTF / FRADM.TTF / JERRY_B4S_HANDWRITING.TTF / MerriweatherSans-Bold.ttf / Polo Brush.ttf / Polo-SemiBold.ttf / RH-Sans.ttf / RH-Sans-Italic.ttf

Video
ID                                       : 1
Format                                   : AVC
Format/Info                              : Advanced Video Codec
Format profile                           : High 10@L5.1
Format settings, CABAC                   : Yes
Format settings, ReFrames                : 16 frames
Codec ID                                 : V_MPEG4/ISO/AVC
Duration                                 : 23 min 40 s
Bit rate                                 : 4 428 kb/s
Width                                    : 1 920 pixels
Height                                   : 1 080 pixels
Display aspect ratio                     : 16:9
Frame rate mode                          : Constant
Frame rate                               : 23.976 (24000/1001) FPS
Color space                              : YUV
Chroma subsampling                       : 4:2:0
Bit depth                                : 10 bits
Scan type                                : Progressive
Bits/(Pixel*Frame)                       : 0.089
Stream size                              : 750 MiB (92%)
Title                                    : Hi10 1080p h.264
Writing library                          : x264 core 155 r2901 7d0ff22
Encoding settings                        : cabac=1 / ref=16 / deblock=1:-1:-1 / analyse=0x3:0x113 / me=umh / subme=10 / psy=1 / psy_rd=0.70:0.00 / mixed_ref=1 / me_range=32 / chroma_me=1 / trellis=2 / 8x8dct=1 / cqm=0 / deadzone=21,11 / fast_pskip=0 / chroma_qp_offset=-2 / threads=9 / lookahead_threads=2 / sliced_threads=0 / nr=0 / decimate=0 / interlaced=0 / bluray_compat=0 / constrained_intra=0 / bframes=16 / b_pyramid=2 / b_adapt=2 / b_bias=0 / direct=3 / weightb=1 / open_gop=0 / weightp=2 / keyint=240 / keyint_min=24 / scenecut=40 / intra_refresh=0 / rc_lookahead=48 / rc=crf / mbtree=1 / crf=16.0 / qcomp=0.70 / qpmin=0 / qpmax=81 / qpstep=4 / ip_ratio=1.40 / aq=3:0.80
Language                                 : Japanese
Default                                  : Yes
Forced                                   : No
Color range                              : Limited
Matrix coefficients                      : BT.709

Audio #1
ID                                       : 2
Format                                   : AAC
Format/Info                              : Advanced Audio Codec
Format profile                           : LC
Codec ID                                 : A_AAC
Duration                                 : 23 min 40 s
Bit rate                                 : 253 kb/s
Channel(s)                               : 2 channels
Channel positions                        : Front: L R
Sampling rate                            : 48.0 kHz
Frame rate                               : 46.875 FPS (1024 spf)
Compression mode                         : Lossy
Stream size                              : 42.9 MiB (5%)
Title                                    : 2.0 AAC
Language                                 : English
Default                                  : Yes
Forced                                   : No

Audio #2
ID                                       : 3
Format                                   : AAC
Format/Info                              : Advanced Audio Codec
Format profile                           : LC
Codec ID                                 : A_AAC
Duration                                 : 23 min 40 s
Bit rate                                 : 128 kb/s
Channel(s)                               : 2 channels
Channel positions                        : Front: L R
Sampling rate                            : 44.1 kHz
Frame rate                               : 43.066 FPS (1024 spf)
Compression mode                         : Lossy
Stream size                              : 21.7 MiB (3%)
Title                                    : 2.0 AAC
Language                                 : Japanese
Default                                  : No
Forced                                   : No

Text #1
ID                                       : 4
Format                                   : ASS
Codec ID                                 : S_TEXT/ASS
Codec ID/Info                            : Advanced Sub Station Alpha
Duration                                 : 20 min 46 s
Bit rate                                 : 472 b/s
Count of elements                        : 569
Compression mode                         : Lossless
Stream size                              : 71.9 KiB (0%)
Title                                    : Signs & Songs
Language                                 : English
Default                                  : Yes
Forced                                   : No

Text #2
ID                                       : 5
Format                                   : ASS
Codec ID                                 : S_TEXT/ASS
Codec ID/Info                            : Advanced Sub Station Alpha
Duration                                 : 23 min 29 s
Bit rate                                 : 535 b/s
Count of elements                        : 963
Compression mode                         : Lossless
Stream size                              : 92.2 KiB (0%)
Title                                    : Dialogue
Language                                 : English
Default                                  : No
Forced                                   : No

Menu
00:00:00.000                             : en:Prologue
00:02:34.029                             : en:OP
00:04:03.994                             : en:Episode
00:22:03.032                             : en:Preview
00:22:12.625                             : en:ED

Other Files in this Torrent
[RH] Free! Dive to the Future - 01 (WEB Dual Audio 1080p) [7F052AB6].mkv
beta
Anime DDL+NZB mirror
Current Time: 05/03/2021 00:40



About/FAQs