[Reaktor] Tokyo Ghoul - E04 v2 [1080p][x265][10-bit][Dual-Audio].mkv


File Size406.5 MB (426,207,686 bytes)
DownloadClickNUpload | Go4Up | Jheberg | MultiUp | OpenLoad | ZippyShare
Sendspace: Part1, Part2
HashesCRC32: E6E88AFA, MD5: F182DCB924FEAB3DE6BF6E3D23FEB2E4, SHA1: D5CFD59599898C72B1A66219000D2941E9EB38F1, SHA256: EB4954A7004AA24C31A0D6719226E0962FBC4B25552953B5416A9B00BA5479D5, ED2K: 378B9D2AACF4F4F241176C8A1235229A
Screenshots
screenshotscreenshotscreenshotscreenshotscreenshot
SubtitlesAll Attachments | Signs/Song for Dub [und, ASS], Subtitles [und, ASS]
Additional Info
General
Unique ID                                : 157080226036470151668371169840323701818 (0x762C8D14DAEF6D32617E3312A3252C3A)
Complete name                            : [Reaktor] Tokyo Ghoul - E04 v2 [1080p][x265][10-bit][Dual-Audio].mkv
Format                                   : Matroska
Format version                           : Version 4
File size                                : 406 MiB
Duration                                 : 24 min 0 s
Overall bit rate                         : 2 368 kb/s
Movie name                               : [Reaktor] Tokyo Ghoul - E04
Encoded date                             : UTC 2019-03-10 03:21:02
Writing application                      : mkvmerge v31.0.0 ('Dolores In A Shoestand') 64-bit
Writing library                          : libebml v1.3.6 + libmatroska v1.4.9
Attachments                              : 14MINUTESSHARP.TTF / 637_0e2d4b16-6374-418b-a9bf-13527ea6414d.ttf.ttf / AaronBecker.ttf / ACaslonPro-Bold.otf / AFKlampenborg_Medium.ttf / Agilita W02 Bold.ttf / akaDora.ttf / ALBR85W.TTF / ALEX_.ttf / Angie-Bold.ttf / arialbd_0.ttf / arial_0.ttf / ariblk.ttf / bluehighv2.ttf / calibril.ttf / ChalkDust_Regular.ttf / Clannad_Round_Regular.ttf / CLEARGL.TTF / cv pixelado.ttf / CWBTRIAL.otf / Disney_Simple.ttf / framd.ttf / Framdcn.TTF / GARAM28.TTF / GosmickSans.ttf / HANDSEAN.TTF / Harabara.ttf / huxtable.ttf / HWYGOTH.TTF / IwaTxtPro-Bd-Madoka.ttf / JANBRADY.TTF / Laser_0.ttf / VAG_Rounded_Std_Light_Regular.otf

Video
ID                                       : 1
Format                                   : HEVC
Format/Info                              : High Efficiency Video Coding
Format profile                           : Main 10@L4@Main
Codec ID                                 : V_MPEGH/ISO/HEVC
Duration                                 : 24 min 0 s
Bit rate                                 : 1 972 kb/s
Width                                    : 1 920 pixels
Height                                   : 1 080 pixels
Display aspect ratio                     : 16:9
Frame rate mode                          : Constant
Frame rate                               : 23.976 (24000/1001) FPS
Color space                              : YUV
Chroma subsampling                       : 4:2:0
Bit depth                                : 10 bits
Bits/(Pixel*Frame)                       : 0.040
Stream size                              : 338 MiB (83%)
Writing library                          : x265 2.3:[Windows][GCC 5.3.1][64 bit] 10bit
Encoding settings                        : cpuid=1173503 / frame-threads=2 / numa-pools=4 / wpp / no-pmode / no-pme / no-psnr / no-ssim / log-level=2 / input-csp=1 / input-res=1920x1080 / interlace=0 / total-frames=0 / level-idc=0 / high-tier=1 / uhd-bd=0 / ref=3 / no-allow-non-conformance / no-repeat-headers / annexb / no-aud / no-hrd / info / hash=0 / no-temporal-layers / open-gop / min-keyint=24 / keyint=240 / bframes=4 / b-adapt=0 / b-pyramid / bframe-bias=0 / rc-lookahead=15 / lookahead-slices=6 / scenecut=40 / no-intra-refresh / ctu=64 / min-cu-size=8 / no-rect / no-amp / max-tu-size=32 / tu-inter-depth=1 / tu-intra-depth=1 / limit-tu=0 / rdoq-level=0 / dynamic-rd=0.00 / signhide / no-tskip / nr-intra=0 / nr-inter=0 / no-constrained-intra / strong-intra-smoothing / max-merge=2 / limit-refs=3 / no-limit-modes / me=1 / subme=2 / merange=57 / temporal-mvp / weightp / no-weightb / no-analyze-src-pics / deblock=0:0 / sao / no-sao-non-deblock / rd=2 / no-early-skip / rskip / fast-intra / no-tskip-fast / no-cu-lossless / no-b-intra / rdpenalty=0 / psy-rd=2.00 / psy-rdoq=0.00 / no-rd-refine / analysis-mode=0 / no-lossless / cbqpoffs=0 / crqpoffs=0 / rc=crf / crf=18.0 / qcomp=0.60 / qpstep=4 / stats-write=0 / stats-read=0 / ipratio=1.40 / pbratio=1.30 / aq-mode=1 / aq-strength=1.00 / cutree / zone-count=0 / no-strict-cbr / qg-size=32 / no-rc-grain / qpmax=69 / qpmin=0 / sar=1 / overscan=0 / videoformat=5 / range=0 / colorprim=1 / transfer=1 / colormatrix=1 / chromaloc=0 / display-window=0 / max-cll=0,0 / min-luma=0 / max-luma=1023 / log2-max-poc-lsb=8 / vui-timing-info / vui-hrd-info / slices=1 / opt-qp-pps / opt-ref-list-length-pps / no-multi-pass-opt-rps / scenecut-bias=0.05 / no-opt-cu-delta-qp / no-aq-motion / no-hdr
Default                                  : Yes
Forced                                   : No
Color range                              : Limited
Color primaries                          : BT.709
Transfer characteristics                 : BT.709
Matrix coefficients                      : BT.709

Audio #1
ID                                       : 2
Format                                   : AAC LC
Format/Info                              : Advanced Audio Codec Low Complexity
Codec ID                                 : A_AAC-2
Duration                                 : 24 min 0 s
Bit rate                                 : 175 kb/s
Channel(s)                               : 2 channels
Channel layout                           : L R
Sampling rate                            : 48.0 kHz
Frame rate                               : 46.875 FPS (1024 SPF)
Compression mode                         : Lossy
Delay relative to video                  : 80 ms
Stream size                              : 30.1 MiB (7%)
Title                                    : English
Default                                  : No
Forced                                   : No

Audio #2
ID                                       : 3
Format                                   : AAC LC
Format/Info                              : Advanced Audio Codec Low Complexity
Codec ID                                 : A_AAC-2
Duration                                 : 24 min 0 s
Bit rate                                 : 180 kb/s
Channel(s)                               : 2 channels
Channel layout                           : L R
Sampling rate                            : 48.0 kHz
Frame rate                               : 46.875 FPS (1024 SPF)
Compression mode                         : Lossy
Stream size                              : 31.0 MiB (8%)
Title                                    : Japanese
Default                                  : Yes
Forced                                   : No

Text #1
ID                                       : 4
Format                                   : ASS
Codec ID                                 : S_TEXT/ASS
Codec ID/Info                            : Advanced Sub Station Alpha
Duration                                 : 23 min 9 s
Bit rate                                 : 5 135 b/s
Count of elements                        : 517
Compression mode                         : Lossless
Stream size                              : 871 KiB (0%)
Title                                    : Signs/Song for Dub
Default                                  : No
Forced                                   : No

Text #2
ID                                       : 5
Format                                   : ASS
Codec ID                                 : S_TEXT/ASS
Codec ID/Info                            : Advanced Sub Station Alpha
Duration                                 : 23 min 59 s
Bit rate                                 : 5 066 b/s
Count of elements                        : 884
Compression mode                         : Lossless
Stream size                              : 891 KiB (0%)
Title                                    : Subtitles
Default                                  : Yes
Forced                                   : No

Menu
00:00:00.000                             : :Prologue
00:01:14.074                             : :Opening
00:02:44.122                             : :Part 1
00:14:15.021                             : :Part 2
00:22:00.152                             : :Ending
00:23:29.992                             : :Preview

Other Files in this Torrent
[Reaktor] Tokyo Ghoul - E04 v2 [1080p][x265][10-bit][Dual-Audio].mkv
beta
Anime DDL+NZB mirror
Current Time: 17/07/2019 11:28



About/FAQs