File Size1.126 GB (1,209,095,562 bytes)
DownloadClickNUpload
DownloadGG: Part1, Part2
KrakenFiles: Part1, Part2
MultiUp: Part1
  • BdUpload
  • DownAce
  • Fichier
  • FileCloud
  • Filerio
  • FilesCdn
  • IndiShare
  • Kbagi
  • Turbobit
  • UpToBox
  • Uppit
, Part2
  • BdUpload
  • DownAce
  • Fichier
  • FileCloud
  • Filerio
  • FilesCdn
  • IndiShare
  • Kbagi
  • Turbobit
  • UpToBox
  • Uppit
, Part3
  • BdUpload
  • DownAce
  • Fichier
  • FileCloud
  • Filerio
  • FilesCdn
  • IndiShare
  • Kbagi
  • Turbobit
  • UpToBox
  • Uppit

ZippyShare: Part1, Part2, Part3
HashesCRC32: B306E8BC, MD5: 824C6891AF379D7A5F37DF0D67F8D734, SHA1: 06C1C7C9C264EC9009DC33576A5F8D7D045273D8, SHA256: 6E6162D30175F948CE628C06BD26742DA4CEC86EF41BEA1704954DD8A52DDE15, ED2K: 3F1EBCF83A21A952325620A8C01894DE
Screenshots
screenshotscreenshotscreenshotscreenshotscreenshot
SubtitlesAll Attachments | eng [ASS]
Additional Info
General
Unique ID                                : 216900796178058761535431640956707266077 (0xA32D92E6A8AE0CE23A1A83062CA7DE1D)
Complete name                            : [Raze] Yuusha, Yamemasu - 05 x265 10bit 1080p 144fps.mkv
Format                                   : Matroska
Format version                           : Version 4
File size                                : 1.13 GiB
Duration                                 : 23 min 41 s
Overall bit rate                         : 6 805 kb/s
Encoded date                             : UTC 2022-05-03 16:45:08
Writing application                      : mkvmerge v59.0.0 ('Shining Star') 64-bit
Writing library                          : libebml v1.4.2 + libmatroska v1.6.4
Attachments                              : 2022-05-03@11_34_31_1410_Roboto-Medium.ttf
Encoding Gui                             : Hybrid 2021.07.18.1

Video
ID                                       : 1
Format                                   : HEVC
Format/Info                              : High Efficiency Video Coding
Format profile                           : Main 10@L5.2@High
Codec ID                                 : V_MPEGH/ISO/HEVC
Duration                                 : 23 min 41 s
Bit rate                                 : 6 635 kb/s
Width                                    : 1 920 pixels
Height                                   : 1 080 pixels
Display aspect ratio                     : 16:9
Frame rate mode                          : Variable
Frame rate                               : 144.000 FPS
Color space                              : YUV
Chroma subsampling                       : 4:2:0
Bit depth                                : 10 bits
Bits/(Pixel*Frame)                       : 0.022
Stream size                              : 1.10 GiB (97%)
Title                                    : Japanese
Language                                 : Japanese
Default                                  : Yes
Forced                                   : Yes
Color range                              : Limited
Matrix coefficients                      : BT.709

Audio
ID                                       : 2
Format                                   : AAC LC
Format/Info                              : Advanced Audio Codec Low Complexity
Codec ID                                 : A_AAC-2
Duration                                 : 23 min 41 s
Bit rate                                 : 159 kb/s
Channel(s)                               : 2 channels
Channel layout                           : L R
Sampling rate                            : 48.0 kHz
Frame rate                               : 46.875 FPS (1024 SPF)
Compression mode                         : Lossy
Delay relative to video                  : 1 ms
Stream size                              : 27.0 MiB (2%)
Default                                  : Yes
Forced                                   : No

Text
ID                                       : 3
Format                                   : ASS
Codec ID                                 : S_TEXT/ASS
Codec ID/Info                            : Advanced Sub Station Alpha
Duration                                 : 23 min 38 s
Bit rate                                 : 129 b/s
Count of elements                        : 359
Compression mode                         : Lossless
Stream size                              : 22.5 KiB (0%)
Language                                 : English
Default                                  : Yes
Forced                                   : No
beta
Anime DDL+NZB mirror
Current Time: 24/06/2024 12:36



About/FAQs

Discord